2 сезон

iTunes

MVO

1

2 сезон

iTunes

iTunes

1 сезон

RePack

30

Ultimate

ВАЖНО

ИГРА 18+

pack

RePack

MK11
pack

Легкие деньги

RePack

jed

RePack

fifa19

RePack

RDR2

RePack

NEED FOR SPEED™ PAYBACK

4 сезон

9 сезон

Бесстыжие 9 сезон

Все сериалы

все сериалы на PB.wtf

RePack

FAR CRY 5

Anonymous, доброй ночи, мы не успеваем собрать деньги на оплату серверов за декабрь и январь, помогите нам пожалуйста в это трудное время. В качестве благодарности мы отключим Вам всю рекламу на сайте (укажите свой ник в строку Ваше имя)!

×
  
Magnet ссылка

Прямая и явная угроза / Clear and Present Danger (Филлип Нойс) [1994 г., боевик, триллер, драма, BDRip 720p / 60 FPS, Профессиональный (многоголосый, закадровый)] от R.G. HD-Films pb.wtf

Прямая и явная угроза через торрент pb.wtf

Размер: 4.87 GB | Добавлен: 8 мес. назад | Торрент скачан:25 раз
Скачать  

20-05-2020 16:25 Прямая и явная угроза Скачать торрент  

Прямая и явная угроза / Clear and Present Danger
Год выпуска: : 1994
Страна: : США
Жанр: : боевик, триллер, драма
Продолжительность: 02:21:15
Перевод: MVO [CEE]
Субтитры: Russian, English

Режиссер: Филлип Нойс

Бюджет: $62 000 000
Премьера в мире: 3 августа 1994

rating

В ролях: Харрисон Форд, Уиллем Дефо, Энн Арчер, Хоаким де Альмейда, Генри Черны, Харрис Юлин, Дональд Моффат, Мигель Сандовал, Бенджамин Брэтт, Рэймонд Крус

Сюжет фильма: Джек Райан на этот раз оказывается во главе отдела разведки ЦРУ, и вхож в Овальный кабинет Белого Дома. Он вынужден бороться против колумбийских наркодельцов, не ведая, что при попустительстве президента США его помощник по национальной безопасности и шеф ЦРУ проводят, с помощью наемников, боевые операции в Колумбии.

Качество видео: BDRip 720p / 60 FPS
Формат: MKV
Видео кодек: H.264
Аудио кодек: AC3
Видео : x264, 1280 x 568 ( 2,25:1 ), 4552 kbps, 60,000 fps, ( 0.104 bpp)
Аудио : Русский, AC-3, 48.0 KHz, 6 ch, 384 Kbps (Профессиональный (многоголосый, закадровый)[CEE])
Релиз от:

скриншот   скриншот   скриншот   скриншот   скриншот   скриншот  Автор рипа: slaventi-69
x264 [info]: frame I:2800 Avg QP:17.22 size: 69077
x264 [info]: frame P:146627 Avg QP:18.44 size: 16815
x264 [info]: frame B:358591 Avg QP:21.55 size: 6019
x264 [info]: consecutive B-frames: 4.6% 9.5% 15.3% 20.4% 44.6% 5.6%


Общее
Уникальный идентификатор : 207364855285001781864581126771218994079 (0x9C0104B737E9B64CFB4790F4F89A539F)
Полное имя : F:\Clear.and.Present.Danger.(1994).BDRip.720p.(60 Fps).mkv
Формат : Matroska
Версия формата : Version 4
Размер файла : 4,87 Гбайт
Продолжительность : 2 ч. 21 м.
Общий поток : 4940 Кбит/сек
Название фильма : Прямая и явная угроза / Clear and Present Danger (1994) BDRip 720p (60 Fps)
Дата кодирования : UTC 2020-05-19 14:46:20
Программа кодирования : mkvmerge v35.0.0 ('All The Love In The World') 64-bit
Библиотека кодирования : libebml v1.3.9 + libmatroska v1.5.2

Видео
Идентификатор : 1
Формат : AVC
Формат/Информация : Advanced Video Codec
Профиль формата : High@L4.1
Настройки формата : CABAC / 8 Ref Frames
Параметр CABAC формата : Да
Параметр RefFrames формата : 8 кадров
Идентификатор кодека : V_MPEG4/ISO/AVC
Продолжительность : 2 ч. 21 м.
Битрейт : 4552 Кбит/сек
Ширина : 1280 пикселей
Высота : 568 пикселей
Соотношение сторон : 2,25:1
Режим частоты кадров : Постоянный
Частота кадров : 60,000 кадров/сек
Цветовое пространство : YUV
Субдискретизация насыщенности : 4:2:0
Битовая глубина : 8 бит
Тип развёртки : Прогрессивная
Бит/(Пиксели*Кадры) : 0.104
Размер потока : 4,49 Гбайт (92%)
Заголовок : slaventi-69 ( R.G. HD-Films | 60 fps )
Библиотека кодирования : x264 core 130 r2273 b3065e6
Настройки программы : cabac=1 / ref=8 / deblock=1:-1:-1 / analyse=0x3:0x133 / me=umh / subme=8 / psy=1 / psy_rd=1.00:0.00 / mixed_ref=1 / me_range=30 / chroma_me=1 / trellis=2 / 8x8dct=1 / cqm=0 / deadzone=21,11 / fast_pskip=0 / chroma_qp_offset=-2 / threads=10 / lookahead_threads=2 / sliced_threads=0 / nr=0 / decimate=1 / interlaced=0 / bluray_compat=0 / constrained_intra=0 / bframes=5 / b_pyramid=2 / b_adapt=2 / b_bias=0 / direct=2 / weightb=1 / open_gop=0 / weightp=2 / keyint=250 / keyint_min=25 / scenecut=40 / intra_refresh=0 / rc=crf / mbtree=0 / crf=17.7 / qcomp=0.60 / qpmin=0 / qpmax=69 / qpstep=4 / ip_ratio=1.40 / pb_ratio=1.30 / aq=1:1.00
Язык : English
Default : Да
Forced : Нет

Аудио
Идентификатор : 2
Формат : AC-3
Формат/Информация : Audio Coding 3
Коммерческое название : Dolby Digital
Идентификатор кодека : A_AC3
Продолжительность : 2 ч. 21 м.
Вид битрейта : Постоянный
Битрейт : 384 Кбит/сек
Каналы : 6 каналов
Channel layout : L R C LFE Ls Rs
Частота : 48,0 КГц
Частота кадров : 31,250 кадров/сек (1536 SPF)
Битовая глубина : 16 бит
Метод сжатия : С потерями
Размер потока : 388 Мбайт (8%)
Заголовок : Профессиональный (многоголосый, закадровый)[CEE]
Язык : Russian
ServiceKind/String : Complete Main
Default : Да
Forced : Нет

Текст #1
Идентификатор : 3
Формат : UTF-8
Идентификатор кодека : S_TEXT/UTF8
Идентификатор кодека/Информация : UTF-8 Plain Text
Продолжительность : 2 ч. 15 м.
Битрейт : 79 бит/сек
ElementCount : 1486
Размер потока : 78,7 Кбайт (0%)
Язык : Russian
Default : Нет
Forced : Нет

Текст #2
Идентификатор : 4
Формат : UTF-8
Идентификатор кодека : S_TEXT/UTF8
Идентификатор кодека/Информация : UTF-8 Plain Text
Продолжительность : 2 ч. 14 м.
Битрейт : 50 бит/сек
ElementCount : 1568
Размер потока : 50,2 Кбайт (0%)
Язык : English
Default : Нет
Forced : Нет

Меню
00:00:00.000 : :Chapter 1
00:07:51.637 : :Chapter 2
00:12:20.823 : :Chapter 3
00:15:48.072 : :Chapter 4
00:18:47.042 : :Chapter 5
00:25:38.036 : :Chapter 6
00:30:02.550 : :Chapter 7
00:34:02.415 : :Chapter 8
00:40:07.154 : :Chapter 9
00:49:25.420 : :Chapter 10
00:52:49.583 : :Chapter 11
01:02:34.375 : :Chapter 12
01:08:45.538 : :Chapter 13
01:11:21.902 : :Chapter 14
01:20:50.804 : :Chapter 15
01:25:51.146 : :Chapter 16
01:29:03.755 : :Chapter 17
01:36:26.739 : :Chapter 18
01:43:23.780 : :Chapter 19
01:46:47.984 : :Chapter 20
01:54:21.229 : :Chapter 21
02:01:07.093 : :Chapter 22
02:10:17.476 : :Chapter 23

Просьба к переливающим на другие сайты, в оформлении указывайте пожалуйста авторство группы R.G. HD-Films pb.wtf



Скачать Прямая и явная угроза через торрент http://img11.lostpic.net/2018/08/31/c3e74945e14bc8a8e611b624e4e61b85.jpg Скачать фильм Прямая и явная угроза через торрент бесплантно в хорошем качестве В ролях: Харрисон Форд, Уиллем Дефо, Энн Арчер, Хоаким де Альмейда, Генри Черны, Харрис Юлин, Дональд Моффат, Мигель Сандовал, Бенджамин ... 10 10 6
Торрент: Зарегистрирован [2020-05-20 16:25] · скачан: 25 раз
Статус: √ проверено
Размер: 4.87 GB
Как cкачать? Как скачать Прямая и явная угроза через торрент | UTorrent

28-11-2019 20:33  

Отключить всю рекламу на сайте

20-05-2020 23:22 Прямая и явная угроза Скачать торрент  

Спасибо большое за Харрисона Форда!!! Крепко сбитый политический триллер с элементами боевика. Забрал в коллекцию. Благодарю.pb.wtf



    Дорогой пользователь! Огромная просьба, поблагодарите релизера, оцените раздачу и оставьте свои комментарий, если Вы скачали Прямая и явная угроза через торрент бесплатно! Внесите свою лепту в развитие PiratBit!
    Комментировать посты могут только пользователи прошедшие не сложную регистрацию
    Показать сообщения:    

    Прямая и явная угроза через торрент
    Скачать бесплатно Прямая и явная угроза
    Прямая и явная угроза скачать торрент
    Прямая и явная угроза смотреть онлайн
    Cкачать фильм Прямая и явная угроза бесплатно
    Прямая и явная угроза скачать торрент в хорошем качестве
    Прямая и явная угроза смотреть онлайн бесплатно в хорошем качестве


    Вы не можете начинать темы
    Вы не можете отвечать на сообщения
    Вы не можете редактировать свои сообщения
    Вы не можете удалять свои сообщения
    Вы не можете голосовать в опросах
    Вы не можете прикреплять файлы к сообщениям
    Вы можете скачивать файлы