Ссылка на приватное зеркало всего за 1$. Внимание количество ограничено!!!

iTunes

iTunes

iTunes

1

iTunes

iTunes

iTunes

iTunes

iTunes

30
pack

Новость дня

ВАЖНО

!!Акция!!

Alien_RageХит недели

RePack

Resident Evil 21

ИГРА 18+

pack

RePack

jed

!!Акция!!

Alien_Rage

RePack

fifa19

RePack

Assassins Creed: Odyssey

RePack

NEED FOR SPEED™ PAYBACK

4 сезон

9 сезон

Бесстыжие 9 сезон

Все сериалы

все сериалы на PB.wtf

RePack

FAR CRY 5
  

Харли Квинн / Harley Quinn / Сезон: 2 / Серии: 1-8 из 13 (Сесилия Аранович, Мэтт Гарофало, Фрэнк Марино) [2020, Мультсериал, фантастика, боевик, WEB-DL 1080p] DUB [The Kitchen Russia] +MVO [Good People] pb.wtf

Харли Квинн через торрент pb.wtf

Раздают: 3 [ 275 KB/s ]
Размер: 7.69 GB | Добавлен: 4 д. назад | Торрент скачан:9 раз
Скачать  

20-05-2020 18:55 Харли Квинн Скачать торрент  

Харли Квинн | Harley Quinn
Год выпуска: 2020
Страна: США
Жанр: Мультсериал, фантастика, фэнтези, боевик, комедия, криминал, детектив
Продолжительность: ~ 00:22:00
Перевод:
Дублированный | The Kitchen Russia
Профессиональный (многоголосый) | Good People
Субтитры: русские (полные, сообщество UGN SUBZ Translators), английские (полные, SDH)

Режиссер: Сесилия Аранович, Хуан Хосе Меса-Леон, Бен Джонс

rating

В ролях: Кейли Куоко, Лэйк Белл, Алан Тьюдик, Дидрих Бадер, Джим Рэш, Рон Фанчес, Кристофер Мелони, Тони Хейл, Дж.Б. Смув, Джейсон Александер

Описание: Харли Квинн разорвала отношения с Джокером и теперь пытается самостоятельно стать королевой преступного мира Готэма.

Качество: WEB-DL 1080p
Формат: | X264 | MKV |

Видео: MPEG-4 AVC, 1920x1080, 23.976 fps, 4985 kbps
Аудио 1: AC-3, 48.0 kHz, 2 ch, 192 kb/s [DUB - The Kitchen Russia]
Аудио 2: AC-3, 48.0 kHz, 2 ch, 192 kb/s [MVO - Good People]
Аудио 3: EAC-3, 48.0 kHz, 2 ch, 640 kb/s [Original]
скриншот  скриншот  скриншот  

General
Unique ID : 233577604351492017554204848037707984457 (0xAFB969068777E8DD855CA71D038D2E49)
Complete name : D:\!FilmsQUEUE\HQ\Harley.Quinn.S02.1080p.DCU.WEBRip.DDP5.1.x264-NTb\Harley.Quinn.S02E01.New.Gotham.1080p.DCU.WEB-DL.DDP5.1.H264-NTb.mkv
Format : Matroska
Format version : Version 4
File size : 986 MiB
Duration : 22 min 55 s
Overall bit rate : 6 012 kb/s
Encoded date : UTC 2020-05-20 17:19:01
Writing application : mkvmerge v37.0.0 ('Leave It') 64-bit
Writing library : libebml v1.3.9 + libmatroska v1.5.2

Video
ID : 1
Format : AVC
Format/Info : Advanced Video Codec
Format profile : Baseline@L4
Format settings : 3 Ref Frames
Format settings, CABAC : No
Format settings, Reference frames : 3 frames
Format settings, GOP : M=1, N=48
Codec ID : V_MPEG4/ISO/AVC
Duration : 22 min 55 s
Bit rate : 4 985 kb/s
Width : 1 920 pixels
Height : 1 080 pixels
Display aspect ratio : 16:9
Frame rate mode : Constant
Frame rate : 23.976 (24000/1001) FPS
Color space : YUV
Chroma subsampling : 4:2:0
Bit depth : 8 bits
Scan type : Progressive
Bits/(Pixel*Frame) : 0.100
Stream size : 817 MiB (83%)
Writing library : Zencoder Video Encoding System
Default : Yes
Forced : No
Color range : Limited
Color primaries : BT.709
Transfer characteristics : BT.709
Matrix coefficients : BT.709

Audio #1
ID : 2
Format : AC-3
Format/Info : Audio Coding 3
Commercial name : Dolby Digital
Codec ID : A_AC3
Duration : 22 min 55 s
Bit rate mode : Constant
Bit rate : 192 kb/s
Channel(s) : 2 channels
Channel layout : L R
Sampling rate : 48.0 kHz
Frame rate : 31.250 FPS (1536 SPF)
Compression mode : Lossy
Stream size : 31.5 MiB (3%)
Title : DUB - The Kitchen Russia
Language : Russian
Service kind : Complete Main
Default : Yes
Forced : No

Audio #2
ID : 3
Format : AC-3
Format/Info : Audio Coding 3
Commercial name : Dolby Digital
Codec ID : A_AC3
Duration : 22 min 54 s
Bit rate mode : Constant
Bit rate : 192 kb/s
Channel(s) : 2 channels
Channel layout : L R
Sampling rate : 48.0 kHz
Frame rate : 31.250 FPS (1536 SPF)
Compression mode : Lossy
Stream size : 31.5 MiB (3%)
Title : MVO - Good People
Language : Russian
Service kind : Complete Main
Default : No
Forced : No

Audio #3
ID : 4
Format : E-AC-3
Format/Info : Enhanced AC-3
Commercial name : Dolby Digital Plus
Codec ID : A_EAC3
Duration : 22 min 55 s
Bit rate mode : Constant
Bit rate : 640 kb/s
Channel(s) : 6 channels
Channel layout : L R C LFE Ls Rs
Sampling rate : 48.0 kHz
Frame rate : 31.250 FPS (1536 SPF)
Compression mode : Lossy
Stream size : 105 MiB (11%)
Language : English
Service kind : Complete Main
Default : No
Forced : No

Text #1
ID : 5
Format : UTF-8
Codec ID : S_TEXT/UTF8
Codec ID/Info : UTF-8 Plain Text
Duration : 22 min 5 s
Bit rate : 160 b/s
Count of elements : 522
Stream size : 26.0 KiB (0%)
Title : Russian
Language : Russian
Default : Yes
Forced : Yes

Text #2
ID : 6
Format : UTF-8
Codec ID : S_TEXT/UTF8
Codec ID/Info : UTF-8 Plain Text
Duration : 21 min 59 s
Bit rate : 105 b/s
Count of elements : 609
Stream size : 17.0 KiB (0%)
Title : English (SDH)
Language : English
Default : No
Forced : No

Внимание! Раздача ведётся путём добавления новых серий; при каждом добавлении создаётся новый торрент. Чтобы начать докачку новой серии, пользователям необходимо сделать следующее:
(1) остановить скачивание,
(2) удалить старый торрент у себя из клиента (старые серии удалять не надо),
(3) скачать новый торрент и запустить его у себя в клиенте вместо старого, при этом указать клиенту путь в старую папку куда и должно происходить скачивание новых серий.

Ваш клиент при этом должен произвести хеширование (проверку) старой папки (если не производит сам - помогите ему сделать это), и будет докачивать только те серии которых у вас ещё нет. Старые серии при этом не удаляются, а продолжают раздаваться!

Eсли вы уже удалили старые серии, то предотвратить повторную закачку старых серий можно, отжав галочку в соответствующих местах при запуске нового торрента. По возможности, желательно не удалять старые серии как можно дольше чтобы релизёр не столько продолжал раздавать старые серии, а смог сконцентрироваться на новых.
pb.wtf



Скачать Харли Квинн через торрент https://i112.fastpic.ru/big/2020/0520/c5/91c7d1c4a9faa1ae591efa115644fcc5.png Скачать фильм Харли Квинн через торрент бесплантно в хорошем качестве Описание: Харли Квинн разорвала отношения с Джокером и теперь пытается самостоятельно стать королевой преступного мира ... 10 10 2
Торрент: Зарегистрирован [2020-05-23 15:04] · скачан: 9 раз
Статус: √ проверено
Размер: 7.69 GB
Как cкачать? Как скачать Харли Квинн через торрент | qTorrent

% Раздел Тема Автор DL S | L
Мультсериалы [ 3.07 GB ] Харли Квинн / Harley Quinn / Сезон: 2 / Серии: 1-8 из 13 [2020 WEB-DLRip] DUB [The Kitchen Russia] bober100 Скачать
1 | 0
Мультсериалы [ 14.55 GB ] Харли Квинн / Harley Quinn / Сезон: 2 / Серии: 1-8 из 13 [2020 UHD WEB-DL 2160p ] DUB [The Kitchen Russia] +MVO [Good People] bober100 Скачать
1 | 1
Мультсериалы [ 7.37 GB ] Харли Квинн / Harley Quinn / Сезон: 2 / Серии: 1-8 из 13 [2020 WEB-DL 1080p] MVO [Jaskier] bober100 Скачать
3 | 1
Мультсериалы [ 4.82 GB ] Харли Квинн / Harley Quinn / Сезон: 2 / Серии: 1-8 из 13 [2020 WEB-DL 720p] MVO [Jaskier] bober100 Скачать
2 | 0
Мультсериалы [ 2.14 GB ] Харли Квинн / Harley Quinn / Сезон: 2 / Серии: 1-8 из 13 [2020 WEB-DLRip] MVO [Jaskier] bober100 Скачать
1 | 0

28-11-2019 20:33  

Отключить всю рекламу на сайте

    Дорогой пользователь! Огромная просьба, поблагодарите релизера, оцените раздачу и оставьте свои комментарий, если Вы скачали Харли Квинн через торрент бесплатно! Внесите свою лепту в развитие PiratBit!
    Комментировать посты могут только пользователи прошедшие не сложную регистрацию
    Показать сообщения:    

    Харли Квинн через торрент
    Скачать бесплатно Харли Квинн
    Харли Квинн скачать торрент
    Харли Квинн смотреть онлайн
    Cкачать фильм Харли Квинн бесплатно
    Харли Квинн скачать торрент в хорошем качестве
    Харли Квинн смотреть онлайн бесплатно в хорошем качестве


    Вы не можете начинать темы
    Вы не можете отвечать на сообщения
    Вы не можете редактировать свои сообщения
    Вы не можете удалять свои сообщения
    Вы не можете голосовать в опросах
    Вы не можете прикреплять файлы к сообщениям
    Вы можете скачивать файлы