Ссылка на приватное зеркало нашего сайта всего за 1$. Внимание количество ограничено!!!

2 сезон

iTunes

1 сезон

1

2 сезон

2 сезон

iTunes

1 сезон

RePack

30

Новинка

ВАЖНО

ИГРА 18+

pack

RePack

MK11
pack

Забери бонус

RePack

jed

!!Акция!!

Alien_Rage

RePack

fifa19

RePack

Assassins Creed: Odyssey

RePack

NEED FOR SPEED™ PAYBACK

4 сезон

9 сезон

Бесстыжие 9 сезон

Все сериалы

все сериалы на PB.wtf

RePack

FAR CRY 5
  

Девушка в лабиринте / L'uomo del labirinto (Донато Карризи) [2019, триллер, детектив, BD Remux 1080p] DUB [iTunes] pb.wtf

Девушка в лабиринте через торрент pb.wtf

Размер: 29.82 GB | Добавлен: 6 мес. назад | Торрент скачан:15 раз
Скачать  

21-05-2020 03:16 Девушка в лабиринте Скачать торрент  

Девушка в лабиринте | L'uomo del labirinto
Год выпуска: 2019
Страна: Италия
Студия: Gavila, Colorado Film Production
Жанр: триллер, детектив
Продолжительность: 02:10:23
Перевод: Дублированный | iTunes
Субтитры: Итальянские

Режиссер: Донато Карризи

rating

В ролях: Дастин Хоффман, Тони Сервилло, Валентина Белле, Виничио Маркиони, Кацярына Шульга, Орландо Синк, Филиппо Дини, Серджо Гроссини, Карла Кассола, Луис Ньекко

Описание: Саманта просыпается со сломанной ногой в комнате без окон. Она дезориентирована и ничего не помнит. Криминальный психолог доктор Грин объясняет испуганной девушке, что её похитили 15 лет назад. Каким-то чудом Саманте удалось бежать, и теперь психологу нужно проникнуть в её разум, чтобы найти похитителя. Помимо Грина, случаем Саманты занимается частный детектив Бруно Генко, для которого поиски похитителя - таинственного человека в маске - должны стать последним делом жизни. Попытка разгадать тайну Саманты превращается в гонку в лабиринте, где каждая подсказка может стать ловушкой, а за каждой дверью может таиться смерть.

Качество: BD Remux 1080p
Формат: MKV

Видео: MPEG-4 AVC, 1920x1080, 30.0 Mbit/s, 23.976 fps
Аудио #01: 48 kHz, AC3, 5.1, 384 Kbps | iTunes | RUS |
Аудио #02: 48 kHz, DTS-HD MA, 5.1, 3689 Kbps | Оригинал | ITA |
скриншот  скриншот  скриншот  скриншот  скриншот  

General
Unique ID : 309515029952633703717778943521161557784 (0xE8DA6D2B53BC41624238F594AC613718)
Complete name : E:Video111L.uomo.del.Labirinto.2019.BDREMUX.1080p,seleZen.mkv
Format : Matroska
Format version : Version 4
File size : 29.8 GiB
Duration : 2 h 10 min
Overall bit rate mode : Variable
Overall bit rate : 32.7 Mb/s
Movie name : L'uomo del labirinto 2019 from селезень
Encoded date : UTC 2020-05-20 22:34:40
Writing application : mkvmerge v40.0.0 ('Old Town Road + Pony') 64-bit
Writing library : libebml v1.3.9 + libmatroska v1.5.2

Video
ID : 1
Format : AVC
Format/Info : Advanced Video Codec
Format profile : High@L4.1
Format settings : CABAC / 4 Ref Frames
Format settings, CABAC : Yes
Format settings, Reference : 4 frames
Codec ID : V_MPEG4/ISO/AVC
Duration : 2 h 10 min
Bit rate mode : Constant
Bit rate : 30.0 Mb/s
Width : 1 920 pixels
Height : 1 080 pixels
Display aspect ratio : 16:9
Frame rate mode : Constant
Frame rate : 23.976 (24000/1001) FPS
Standard : NTSC
Color space : YUV
Chroma subsampling : 4:2:0
Bit depth : 8 bits
Scan type : Progressive
Bits/(Pixel*Frame) : 0.603
Stream size : 26.1 GiB (88%)
Language : German
Default : Yes
Forced : No
Color range : Limited
Color primaries : BT.709
Transfer characteristics : BT.709
Matrix coefficients : BT.709

Audio #1
ID : 2
Format : AC-3
Format/Info : Audio Coding 3
Commercial name : Dolby Digital
Codec ID : A_AC3
Duration : 2 h 10 min
Bit rate mode : Constant
Bit rate : 384 kb/s
Channel(s) : 6 channels
Channel layout : L R C LFE Ls Rs
Sampling rate : 48.0 kHz
Frame rate : 31.250 FPS (1536 SPF)
Compression mode : Lossy
Stream size : 358 MiB (1%)
Title : iTunes
Language : Russian
Service kind : Complete Main
Default : Yes
Forced : Yes

Audio #2
ID : 3
Format : DTS XLL
Format/Info : Digital Theater Systems
Commercial name : DTS-HD Master Audio
Codec ID : A_DTS
Duration : 2 h 10 min
Bit rate mode : Variable
Bit rate : 3 689 kb/s
Channel(s) : 6 channels
Channel layout : C L R Ls Rs LFE
Sampling rate : 48.0 kHz
Frame rate : 93.750 FPS (512 SPF)
Bit depth : 24 bits
Compression mode : Lossless
Stream size : 3.36 GiB (11%)
Title : Original
Language : Italian
Default : No
Forced : No

Text
ID : 4
Format : UTF-8
Codec ID : S_TEXT/UTF8
Codec ID/Info : UTF-8 Plain Text
Duration : 2 h 3 min
Bit rate : 40 b/s
Count of elements : 875
Stream size : 36.5 KiB (0%)
Title : SDH
Language : Italian
Default : No
Forced : No

Menu
00:00:00.000 : de:
00:10:15.323 : de:
00:20:32.064 : de:
00:35:06.980 : de:
00:44:58.779 : de:
00:57:51.301 : de:
01:06:38.703 : de:
01:17:06.497 : de:
01:28:15.499 : de:
01:38:24.357 : de:
01:52:58.563 : de:
02:03:25.773 : de:

pb.wtf



Скачать Девушка в лабиринте через торрент https://img11.lostpic.net/2020/05/21/d3b510fe502bcf660d0901134a436a06.jpg Скачать фильм Девушка в лабиринте через торрент бесплантно в хорошем качестве Описание: Саманта просыпается со сломанной ногой в комнате без окон. Она дезориентирована и ничего не помнит. Криминальный психолог доктор ... 10 10 3
Торрент: Зарегистрирован [2020-05-21 03:16] · скачан: 15 раз
Статус: √ проверено
Размер: 29.82 GB
Как cкачать? Как скачать Девушка в лабиринте через торрент | qTorrent

28-11-2019 20:33  

Отключить всю рекламу на сайте

    Дорогой пользователь! Огромная просьба, поблагодарите релизера, оцените раздачу и оставьте свои комментарий, если Вы скачали Девушка в лабиринте через торрент бесплатно! Внесите свою лепту в развитие PiratBit!
    Комментировать посты могут только пользователи прошедшие не сложную регистрацию
    Показать сообщения:    

    Девушка в лабиринте через торрент
    Скачать бесплатно Девушка в лабиринте
    Девушка в лабиринте скачать торрент
    Девушка в лабиринте смотреть онлайн
    Cкачать фильм Девушка в лабиринте бесплатно
    Девушка в лабиринте скачать торрент в хорошем качестве
    Девушка в лабиринте смотреть онлайн бесплатно в хорошем качестве


    Вы не можете начинать темы
    Вы не можете отвечать на сообщения
    Вы не можете редактировать свои сообщения
    Вы не можете удалять свои сообщения
    Вы не можете голосовать в опросах
    Вы не можете прикреплять файлы к сообщениям
    Вы можете скачивать файлы