Ссылка на приватное зеркало всего за 1$. Внимание количество ограничено!!!

iTunes

iTunes

iTunes

1

iTunes

iTunes

iTunes

iTunes

iTunes

30
pack

$ от Little Big

ВАЖНО

!!Акция!!

Alien_RageХит недели

RePack

Resident Evil 21

ИГРА 18+

pack

RePack

jed

!!Акция!!

Alien_Rage

RePack

fifa19

RePack

Assassins Creed: Odyssey

RePack

NEED FOR SPEED™ PAYBACK

4 сезон

9 сезон

Бесстыжие 9 сезон

Все сериалы

все сериалы на PB.wtf

RePack

FAR CRY 5
  

Гроза (Григорий Константинопольский) [2019, Драма, трагикомедия, WEBRip 1080p] pb.wtf

Гроза через торрент pb.wtf

Раздают: 2 [ 0 KB/s ]
Размер: 2.59 GB | Добавлен: 14 д. назад | Торрент скачан:93 раза
Скачать  

21-05-2020 12:23 Гроза Скачать торрент  

Гроза
Год выпуска: 2019
Страна: Россия
Жанр: Драма, трагикомедия
Продолжительность: 01:19:28
Перевод: Не требуется
Субтитры: отсутствуют

Режиссер: Григорий Константинопольский

rating

В ролях: Любовь Аксёнова, Виктория Толстоганова, Мария Шалаева, Александр Кузнецов (IX), Сергей Городничий, Алиса Хазанова, Алексей Макаров, Иван Макаревич, Дарья Каширина, Михаил Ефремов, Никита Еленев, Стася Венкова

Описание: По мотивам одноименной пьесы Александра Островского. Действие фильма разворачивается в наши дни в маленьком волжском городке Калинов, где со времен классика Александра Островского ничего не поменялось — если лучи света и появляются в темном царстве, то обречены тихо угаснуть в общей глупости и невежестве, либо ярко сверкнуть в знак протеста против лжи и самодурства. Молодая замужняя женщина Катерина Кабанова живет, на первый взгляд, счастливой жизнью. Разве, что ее свекровь Кабаниха постоянно придирается и не дает вздохнуть спокойно. А слабовольный муж, Тихон, хоть и любит жену, но все время принимает сторону властной матери. А когда Катерина неожиданно для себя влюбляется в родственника мэра города, молодого человека по имени Борис, то обнаруживает, что он тоже испытывает к ней нежные чувства…

Качество: WEBRip 1080p
Формат: MKV

Видео: MPEG-4 AVC, 4374 Кбит/с, 1920x720
Аудио: 48.0 kHz, AC3 Dolby Digital, 2/0 (L,R) ch, ~ 192 kbps
скриншот  скриншот  

Общее
Уникальный идентификатор : 213360421282318288161300183100968865100 (0xA083B8F123401585B40F4F6824B70D4C)
Полное имя : C:\Groza.2019.WEB-DL.(1080p).Getty.mkv
Формат : Matroska
Версия формата : Version 4
Размер файла : 2,59 Гбайт
Продолжительность : 1 ч. 19 м.
Режим общего битрейта : Переменный
Общий поток : 4659 Кбит/сек
Название фильма : Groza.2019.WEB-DL.(1080p).Getty
Дата кодирования : UTC 2020-05-20 21:10:34
Программа кодирования : mkvmerge v7.8.0 ('River Man') 32bit built on Mar 27 2015 16:18:02
Библиотека кодирования : libebml v1.3.1 + libmatroska v1.4.2

Видео
Идентификатор : 1
Формат : AVC
Формат/Информация : Advanced Video Codec
Профиль формата : High@L4
Настройки формата : CABAC / 1 Ref Frames
Параметр CABAC формата : Да
Параметр RefFrames формата : 1 кадр
Параметр GOP формата : M=1, N=50
Идентификатор кодека : V_MPEG4/ISO/AVC
Продолжительность : 1 ч. 19 м.
Вид битрейта : Переменный
Битрейт : 4374 Кбит/сек
Максимальный битрейт : 4500 Кбит/сек
Ширина : 1920 пикселей
Высота : 720 пикселей
Соотношение сторон : 2,667
Режим частоты кадров : Постоянный
Частота кадров : 25,000 кадров/сек
Цветовое пространство : YUV
Субдискретизация насыщенности : 4:2:0
Битовая глубина : 8 бит
Тип развёртки : Прогрессивная
Бит/(Пиксели*Кадры) : 0.127
Размер потока : 2,43 Гбайт (94%)
Default : Да
Forced : Нет

Аудио
Идентификатор : 2
Формат : AC-3
Формат/Информация : Audio Coding 3
Коммерческое название : Dolby Digital
Идентификатор кодека : A_AC3
Продолжительность : 1 ч. 19 м.
Вид битрейта : Постоянный
Битрейт : 192 Кбит/сек
Каналы : 2 канала
ChannelLayout : L R
Частота : 48,0 КГц
Частота кадров : 31,250 кадров/сек (1536 SPF)
Битовая глубина : 16 бит
Метод сжатия : С потерями
Размер потока : 109 Мбайт (4%)
ServiceKind/String : Complete Main
Default : Да
Forced : Нет

pb.wtf



Скачать Гроза через торрент https://img11.lostpic.net/2020/05/21/9fea497e5d7157300ca9c694acbd007e.jpg Скачать фильм Гроза через торрент бесплантно в хорошем качестве Описание: По мотивам одноименной пьесы Александра Островского. Действие фильма разворачивается в наши дни в маленьком волжском городке ... 8.7 10 7
Торрент: Зарегистрирован [2020-05-21 12:23] · скачан: 93 раз
Статус: T временная
Размер: 2.59 GB
Как cкачать? Как скачать Гроза через торрент | qTorrent

% Раздел Тема Автор DL S | L
T Наши новые фильмы 2018-2019 [ 1.09 GB ] Гроза [2019 траги WEBRip] bober100 Скачать
6 | 0
Фильмы (HD 720p, 1080p) (48-60 fps) [ 4.87 GB ] Прямая и явная угроза / Clear and Present Danger [1994 BDRip 720p / 60 FPS ] от R.G. HD-Films slaventi-69 Скачать
1 | 0
Старые игры [ 1.31 GB ] Red Alert 2 & Red Alert 2: Yuri's Revenge / Красная Угроза 2 & Красная угроза 2: Месть Юрия [Пиратка RU Стратегия ] Blane Скачать
6 | 0
Ultra HD (UHD: 2K, 4K, 8K) — видео сверхвысокой чёткости [ 48.5 GB ] Звездные войны: Эпизод 1 - Скрытая угроза / Star Wars: Episode I - The Phantom Menace [1999 UHD BDRemux 2160p] DUB [] bober100 Скачать
2 | 0
Фильмы [HD 720p, 1080p] (Хороший звук DUB, MVO) [ 3.54 GB ] Во время грозы / Durante la tormenta [2018 BDRip 720p by msltel] MVO msltel Скачать
2 | 0
Фильмы [HD 720p, 1080p] (Хороший звук DUB, MVO) [ 9 GB ] Во время грозы / Durante la tormenta [2018 BDRip 1080p by msltel] MVO msltel Скачать
1 | 0
Азиатские фильмы [ 1.8 GB ] Тройная угроза / Triple Threat [2019 BDRip-AVC] bober100 Скачать
1 | 0

28-11-2019 20:33  

Отключить всю рекламу на сайте

22-05-2020 18:27 Гроза Скачать торрент  

Справа обрезана картинка. Смотрел с флэшки на телеке.pb.wtf



    Дорогой пользователь! Огромная просьба, поблагодарите релизера, оцените раздачу и оставьте свои комментарий, если Вы скачали Гроза через торрент бесплатно! Внесите свою лепту в развитие PiratBit!
    Комментировать посты могут только пользователи прошедшие не сложную регистрацию
    Показать сообщения:    

    Гроза через торрент
    Скачать бесплатно Гроза
    Гроза скачать торрент
    Гроза смотреть онлайн
    Cкачать фильм Гроза бесплатно
    Гроза скачать торрент в хорошем качестве
    Гроза смотреть онлайн бесплатно в хорошем качестве


    Вы не можете начинать темы
    Вы не можете отвечать на сообщения
    Вы не можете редактировать свои сообщения
    Вы не можете удалять свои сообщения
    Вы не можете голосовать в опросах
    Вы не можете прикреплять файлы к сообщениям
    Вы можете скачивать файлы