Ссылка на приватное зеркало всего за 1$. Внимание количество ограничено!!!

iTunes

iTunes

iTunes

1

iTunes

iTunes

iTunes

iTunes

iTunes

30
pack

Новость дня

ВАЖНО

!!Акция!!

Alien_RageХит недели

RePack

Resident Evil 21

ИГРА 18+

pack

RePack

jed

!!Акция!!

Alien_Rage

RePack

fifa19

RePack

Assassins Creed: Odyssey

RePack

NEED FOR SPEED™ PAYBACK

4 сезон

9 сезон

Бесстыжие 9 сезон

Все сериалы

все сериалы на PB.wtf

RePack

FAR CRY 5
  

Девушка в лабиринте / L'uomo del labirinto (Донато Карризи) [2019, триллер, детектив, BDRip 720p] DUB [iTunes] pb.wtf

Девушка в лабиринте через торрент pb.wtf

Раздают: 12 [ 968 KB/s ]
Размер: 6.28 GB | Добавлен: 6 д. назад | Торрент скачан:61 раз
Скачать  

21-05-2020 13:16 Девушка в лабиринте Скачать торрент  

Девушка в лабиринте | L'uomo del labirinto
Год выпуска: 2019
Страна: Италия
Студия: Gavila, Colorado Film Production
Жанр: триллер, детектив
Продолжительность: 02:10:23
Перевод: Дублированный | iTunes
Субтитры: Итальянские

Режиссер: Донато Карризи

rating

В ролях: Дастин Хоффман, Тони Сервилло, Валентина Белле, Виничио Маркиони, Кацярына Шульга, Орландо Синк, Филиппо Дини, Серджо Гроссини, Карла Кассола, Луис Ньекко

Описание: Саманта просыпается со сломанной ногой в комнате без окон. Она дезориентирована и ничего не помнит. Криминальный психолог доктор Грин объясняет испуганной девушке, что её похитили 15 лет назад. Каким-то чудом Саманте удалось бежать, и теперь психологу нужно проникнуть в её разум, чтобы найти похитителя. Помимо Грина, случаем Саманты занимается частный детектив Бруно Генко, для которого поиски похитителя - таинственного человека в маске - должны стать последним делом жизни. Попытка разгадать тайну Саманты превращается в гонку в лабиринте, где каждая подсказка может стать ловушкой, а за каждой дверью может таиться смерть.

Качество: BDRip 720p
Формат: MKV

Видео: MPEG-4 AVC, 1280x534, 5876 Кbit/s, 23.976 fps
Аудио #01: 48 kHz, AC3, 5.1, 384 Kbps | iTunes | RUS |
Аудио #02: 48 kHz, AC3, 5.1, 640 Kbps | Оригинал | ITA |
скриншот  скриншот  скриншот  скриншот  скриншот  

General
Unique ID : 112726438194438373672768567415259991882 (0x54CE528138F48C8778B4E9C188230F4A)
Complete name : E:Video111L.uomo.del.Labirinto.2019.BDRip.720p.seleZen.mkv
Format : Matroska
Format version : Version 4
File size : 6.28 GiB
Duration : 2 h 10 min
Overall bit rate : 6 899 kb/s
Movie name : L'uomo del labirinto 2019 from селезень
Encoded date : UTC 2020-05-21 12:13:42
Writing application : mkvmerge v40.0.0 ('Old Town Road + Pony') 64-bit
Writing library : libebml v1.3.9 + libmatroska v1.5.2

Video
ID : 1
Format : AVC
Format/Info : Advanced Video Codec
Format profile : High@L4.1
Format settings : CABAC / 5 Ref Frames
Format settings, CABAC : Yes
Format settings, Reference : 5 frames
Codec ID : V_MPEG4/ISO/AVC
Duration : 2 h 10 min
Bit rate : 5 876 kb/s
Width : 1 280 pixels
Height : 534 pixels
Display aspect ratio : 2.40:1
Frame rate mode : Constant
Frame rate : 23.976 (24000/1001) FPS
Color space : YUV
Chroma subsampling : 4:2:0
Bit depth : 8 bits
Scan type : Progressive
Bits/(Pixel*Frame) : 0.359
Stream size : 5.35 GiB (85%)
Title : Encoded by seleZen
Writing library : x264 core 142 r2431+42 c69a006 tMod [8-bit@all X86_64]
Encoding settings : cabac=1 / ref=5 / deblock=1:-2:-2 / analyse=0x3:0x133 / me=umh / subme=10 / psy=1 / fade_compensate=0.00 / psy_rd=1.00:0.00 / mixed_ref=1 / me_range=32 / chroma_me=1 / trellis=2 / 8x8dct=1 / cqm=0 / deadzone=21,11 / fast_pskip=0 / chroma_qp_offset=-2 / threads=24 / lookahead_threads=4 / sliced_threads=0 / nr=0 / decimate=0 / interlaced=0 / bluray_compat=0 / constrained_intra=0 / fgo=0 / bframes=10 / b_pyramid=2 / b_adapt=2 / b_bias=0 / direct=3 / weightb=1 / open_gop=0 / weightp=2 / keyint=240 / keyint_min=23 / scenecut=40 / intra_refresh=0 / rc_lookahead=50 / rc=2pass / mbtree=0 / bitrate=5876 / ratetol=1.0 / qcomp=0.60 / qpmin=0:0:0 / qpmax=51:51:51 / qpstep=4 / cplxblur=20.0 / qblur=0.5 / vbv_maxrate=50000 / vbv_bufsize=62500 / nal_hrd=none / filler=0 / ip_ratio=1.40 / pb_ratio=1.30 / aq=3:0.80 / aq-sensitivity=10.00 / aq-factor=1.00:1.00:1.00 / aq2=0 / aq3=0
Language : German
Default : Yes
Forced : No

Audio #1
ID : 2
Format : AC-3
Format/Info : Audio Coding 3
Commercial name : Dolby Digital
Codec ID : A_AC3
Duration : 2 h 10 min
Bit rate mode : Constant
Bit rate : 384 kb/s
Channel(s) : 6 channels
Channel layout : L R C LFE Ls Rs
Sampling rate : 48.0 kHz
Frame rate : 31.250 FPS (1536 SPF)
Compression mode : Lossy
Stream size : 358 MiB (6%)
Title : iTunes
Language : Russian
Service kind : Complete Main
Default : Yes
Forced : Yes

Audio #2
ID : 3
Format : AC-3
Format/Info : Audio Coding 3
Commercial name : Dolby Digital
Codec ID : A_AC3
Duration : 2 h 10 min
Bit rate mode : Constant
Bit rate : 640 kb/s
Channel(s) : 6 channels
Channel layout : L R C LFE Ls Rs
Sampling rate : 48.0 kHz
Frame rate : 31.250 FPS (1536 SPF)
Compression mode : Lossy
Stream size : 597 MiB (9%)
Title : Original
Language : Italian
Service kind : Complete Main
Default : No
Forced : No

Text
ID : 4
Format : UTF-8
Codec ID : S_TEXT/UTF8
Codec ID/Info : UTF-8 Plain Text
Duration : 2 h 3 min
Bit rate : 40 b/s
Count of elements : 875
Stream size : 36.5 KiB (0%)
Title : SDH
Language : Italian
Default : No
Forced : No

Menu
00:00:00.000 : de:
00:10:15.323 : de:
00:20:32.064 : de:
00:35:06.980 : de:
00:44:58.779 : de:
00:57:51.301 : de:
01:06:38.703 : de:
01:17:06.497 : de:
01:28:15.499 : de:
01:38:24.357 : de:
01:52:58.563 : de:
02:03:25.773 : de:

pb.wtf



Скачать Девушка в лабиринте через торрент https://img11.lostpic.net/2020/05/21/d3b510fe502bcf660d0901134a436a06.jpg Скачать фильм Девушка в лабиринте через торрент бесплантно в хорошем качестве Описание: Саманта просыпается со сломанной ногой в комнате без окон. Она дезориентирована и ничего не помнит. Криминальный психолог доктор ... 10 10 4
Торрент: Зарегистрирован [2020-05-21 13:16] · скачан: 61 раз
Статус: √ проверено
Размер: 6.28 GB
Как cкачать? Как скачать Девушка в лабиринте через торрент | qTorrent

28-11-2019 20:33  

Отключить всю рекламу на сайте

    Дорогой пользователь! Огромная просьба, поблагодарите релизера, оцените раздачу и оставьте свои комментарий, если Вы скачали Девушка в лабиринте через торрент бесплатно! Внесите свою лепту в развитие PiratBit!
    Комментировать посты могут только пользователи прошедшие не сложную регистрацию
    Показать сообщения:    

    Девушка в лабиринте через торрент
    Скачать бесплатно Девушка в лабиринте
    Девушка в лабиринте скачать торрент
    Девушка в лабиринте смотреть онлайн
    Cкачать фильм Девушка в лабиринте бесплатно
    Девушка в лабиринте скачать торрент в хорошем качестве
    Девушка в лабиринте смотреть онлайн бесплатно в хорошем качестве


    Вы не можете начинать темы
    Вы не можете отвечать на сообщения
    Вы не можете редактировать свои сообщения
    Вы не можете удалять свои сообщения
    Вы не можете голосовать в опросах
    Вы не можете прикреплять файлы к сообщениям
    Вы можете скачивать файлы