Ссылка на приватное зеркало всего за 1$. Внимание количество ограничено!!!

iTunes

iTunes

iTunes

1

iTunes

iTunes

iTunes

iTunes

iTunes

30
pack

Новость дня

ВАЖНО

!!Акция!!

Alien_RageХит недели

RePack

Resident Evil 21

ИГРА 18+

pack

RePack

jed

!!Акция!!

Alien_Rage

RePack

fifa19

RePack

Assassins Creed: Odyssey

RePack

NEED FOR SPEED™ PAYBACK

4 сезон

9 сезон

Бесстыжие 9 сезон

Все сериалы

все сериалы на PB.wtf

RePack

FAR CRY 5
  

Чужая нация / Alien Nation (Грэм Бейкер) [1988 г., фантастика, триллер, драма, криминал, HDTVRip 720p] MVO (R5), 2xAVO (А.Гаврилов, В.Дохалов) pb.wtf

Чужая нация через торрент pb.wtf

Раздают: 6 [ 0 KB/s ]
Размер: 2.9 GB | Добавлен: 5 д. назад | Торрент скачан:55 раз
Скачать  

22-05-2020 06:40 Чужая нация Скачать торрент  

Чужая нация / Alien Nation
Год выпуска: 1988

Страна: США

Жанр: Фантастика, триллер, драма, криминал

Продолжительность: 01:26:09

Перевод: Профессиональный (многоголосый), авторский (одноголосый)

Режиссер: Грэм Бейкер

rating

В ролях: Джеймс Каан, Мэнди Пэтинкин, Теренс Стэмп, Кевин Мейджор Ховард, Лесли Бевис, Питер Джейсон, Конрад Данн, Джефф Кобер, Роджер Аарон Браун, Тони Саймотс

Описание: В пустыне Мохаве потерпел крушение огромный инопланетный космический корабль, перевозивший 250 тысяч рабов из разных концов Галактики. Пришельцы стали жить среди людей, многие из которых были очень враждебно настроены по отношению к «отбросам Вселенной».
Среди них — детектив Мэттью Сайкс, напарник которого погиб в перестрелке с бандой пришельцев. Перебирая бумаги погибшего друга, Мэттью делает открытие: его убили за то, что он пытался выяснить, почему пришельцы так слепо повиновались своим бывшим хозяевам.
Когда в городе начинают находить трупы пришельцев, умерших от странной болезни, а на страницы газет попадает снимок чудовищной насекомообразной твари, Мэттью и его новый напарник, пришелец Джордж, вынуждены работать рука об руку, чтобы раскрыть тайну этих событий…
Качество: HDTVRip 720p
Формат: MKV
Видео: MPEG-4 AVC, 3850 Кбит/с, 1280x548, 25.000 кадр/с
Аудио#1: Русский, AC3, 6 ch, 384 Кбит/сек - MVO (R5)
Аудио#2: Русский, AC3, 2 ch, 192 Кбит/сек - AVO (А.Гаврилов)
Аудио#3: Русский, AC3, 2 ch, 192 Кбит/сек - AVO (В.Дохалов)
Аудио#4: Английский, AC3, 2 ch, 192 Кбит/сек
Видео
Идентификатор : 1
Формат : AVC
Формат/Информация : Advanced Video Codec
Профиль формата : High@L4.1
Настройки формата : CABAC / 9 Ref Frames
Параметр CABAC формата : Да
Параметр RefFrames формата : 9 кадров
Идентификатор кодека : V_MPEG4/ISO/AVC
Продолжительность : 1 ч. 26 м.
Битрейт : 3850 Кбит/сек
Ширина : 1280 пикселей
Высота : 548 пикселей
Соотношение сторон : 2,35:1
Режим частоты кадров : Постоянный
Частота кадров : 25,000 кадров/сек
Цветовое пространство : YUV
Субдискретизация насыщенности : 4:2:0
Битовая глубина : 8 бит
Тип развёртки : Прогрессивная
Бит/(Пиксели*Кадры) : 0.220
Размер потока : 2,26 Гбайт (78%)
Заголовок : Чужая нация [1988, HDTVRip/720p] || big1@HQFans
Библиотека кодирования : x264 core 122 r2184 5c85e0a
Настройки программы : cabac=1 / ref=9 / deblock=1:-3:-3 / analyse=0x3:0x133 / me=umh / subme=9 / psy=1 / psy_rd=1.00:0.20 / mixed_ref=1 / me_range=48 / chroma_me=1 / trellis=2 / 8x8dct=1 / cqm=0 / deadzone=21,11 / fast_pskip=1 / chroma_qp_offset=-3 / threads=6 / sliced_threads=0 / nr=0 / decimate=1 / interlaced=0 / bluray_compat=0 / constrained_intra=0 / bframes=5 / b_pyramid=2 / b_adapt=2 / b_bias=0 / direct=3 / weightb=1 / open_gop=0 / weightp=2 / keyint=250 / keyint_min=25 / scenecut=40 / intra_refresh=0 / rc_lookahead=60 / rc=2pass / mbtree=1 / bitrate=3850 / ratetol=1.0 / qcomp=0.60 / qpmin=0 / qpmax=69 / qpstep=4 / cplxblur=20.0 / qblur=0.5 / ip_ratio=1.40 / aq=1:1.00
Язык : English
Default : Да
Forced : Нет

Аудио #1
Идентификатор : 2
Формат : AC-3
Формат/Информация : Audio Coding 3
Коммерческое название : Dolby Digital
Идентификатор кодека : A_AC3
Продолжительность : 1 ч. 26 м.
Вид битрейта : Постоянный
Битрейт : 384 Кбит/сек
Каналы : 6 каналов
ChannelLayout : L R C LFE Ls Rs
Частота : 48,0 КГц
Частота кадров : 31,250 кадров/сек (1536 SPF)
Метод сжатия : С потерями
Размер потока : 237 Мбайт (8%)
Заголовок : MVO [AC3 5.1@384kbps]
Язык : Russian
ServiceKind/String : Complete Main
Default : Да
Forced : Нет

Аудио #2
Идентификатор : 3
Формат : AC-3
Формат/Информация : Audio Coding 3
Коммерческое название : Dolby Digital
Идентификатор кодека : A_AC3
Продолжительность : 1 ч. 26 м.
Вид битрейта : Постоянный
Битрейт : 192 Кбит/сек
Каналы : 2 канала
ChannelLayout : L R
Частота : 48,0 КГц
Частота кадров : 31,250 кадров/сек (1536 SPF)
Метод сжатия : С потерями
Размер потока : 118 Мбайт (4%)
Заголовок : AVO {Гаврилов} [AC3 2.0@192kbps]
Язык : Russian
ServiceKind/String : Complete Main
Default : Нет
Forced : Нет

Аудио #3
Идентификатор : 4
Формат : AC-3
Формат/Информация : Audio Coding 3
Коммерческое название : Dolby Digital
Идентификатор кодека : A_AC3
Продолжительность : 1 ч. 26 м.
Вид битрейта : Постоянный
Битрейт : 192 Кбит/сек
Каналы : 2 канала
ChannelLayout : L R
Частота : 48,0 КГц
Частота кадров : 31,250 кадров/сек (1536 SPF)
Метод сжатия : С потерями
Размер потока : 118 Мбайт (4%)
Заголовок : AVO {Дохалов} [AC3 2.0@192kbps]
Язык : Russian
ServiceKind/String : Complete Main
Default : Нет
Forced : Нет

Аудио #4
Идентификатор : 5
Формат : AC-3
Формат/Информация : Audio Coding 3
Коммерческое название : Dolby Digital
Идентификатор кодека : A_AC3
Продолжительность : 1 ч. 26 м.
Вид битрейта : Постоянный
Битрейт : 192 Кбит/сек
Каналы : 2 канала
ChannelLayout : L R
Частота : 48,0 КГц
Частота кадров : 31,250 кадров/сек (1536 SPF)
Метод сжатия : С потерями
Размер потока : 118 Мбайт (4%)
Заголовок : [AC3 2.0@192kbps]
Язык : English
ServiceKind/String : Complete Main
Default : Нет
Forced : Нет

скриншот   скриншот   скриншот   скриншот   скриншот  

pb.wtf



Скачать Чужая нация через торрент http://pic1.kartinco.top/images/12/zojv7.jpg Скачать фильм Чужая нация через торрент бесплантно в хорошем качестве Описание: В пустыне Мохаве потерпел крушение огромный инопланетный космический корабль, перевозивший 250 тысяч рабов из разных концов ... 10 10 2
Торрент: Зарегистрирован [2020-05-22 06:40] · скачан: 55 раз
Статус: √ проверено
Размер: 2.9 GB
Как cкачать? Как скачать Чужая нация через торрент | qTorrent

% Раздел Тема Автор DL S | L
Фильмы (Blu-ray, BD-Remux, HDDVD) [ 21.73 GB ] Чужая нация / Alien Nation [1988 BDRemux 1080p] MVO 2x AVO -Lexx- Скачать
1 | 0
Фильмы до 2000 г. [ 1.37 GB ] Чужая нация / Alien Nation [1988 DVDRip jump88 Скачать
1 | 2

28-11-2019 20:33  

Отключить всю рекламу на сайте

24-05-2020 17:51 Чужая нация Скачать торрент  

Спасибо за релиз! Фильм прикольный и интересный! Известные актеры отлично сыграли! Любителям фантастики советую к просмотру!pb.wtf



    Дорогой пользователь! Огромная просьба, поблагодарите релизера, оцените раздачу и оставьте свои комментарий, если Вы скачали Чужая нация через торрент бесплатно! Внесите свою лепту в развитие PiratBit!
    Комментировать посты могут только пользователи прошедшие не сложную регистрацию
    Показать сообщения:    

    Чужая нация через торрент
    Скачать бесплатно Чужая нация
    Чужая нация скачать торрент
    Чужая нация смотреть онлайн
    Cкачать фильм Чужая нация бесплатно
    Чужая нация скачать торрент в хорошем качестве
    Чужая нация смотреть онлайн бесплатно в хорошем качестве


    Вы не можете начинать темы
    Вы не можете отвечать на сообщения
    Вы не можете редактировать свои сообщения
    Вы не можете удалять свои сообщения
    Вы не можете голосовать в опросах
    Вы не можете прикреплять файлы к сообщениям
    Вы можете скачивать файлы