Ссылка на приватное зеркало нашего сайта всего за 1$. Внимание количество ограничено!!!

2 сезон

iTunes

1 сезон

1

iTunes

iTunes

iTunes

1 сезон

RePack

30

ИГРА 18+

pack

ВАЖНО

!!Акция!!

Alien_RageХит недели

RePack

MK11
pack

Забери бонус

RePack

jed

!!Акция!!

Alien_Rage

RePack

fifa19

RePack

Assassins Creed: Odyssey

RePack

NEED FOR SPEED™ PAYBACK

4 сезон

9 сезон

Бесстыжие 9 сезон

Все сериалы

все сериалы на PB.wtf

RePack

FAR CRY 5
  

Заклятые друзья / 1 сезон / 1-16 серии из 16 (Николай Каптан) [2019, комедия, детектив, мистический, HDTVRip] pb.wtf

Заклятые друзья через торрент pb.wtf

Качают: 1 [ 0 KB/s ]
Размер: 10.45 GB | Добавлен: 5 мес. 7 д. назад | Торрент скачан:32 раза
Скачать  

22-05-2020 12:15 Заклятые друзья Скачать торрент  

Заклятые друзья
Год выпуска: 2019

Страна: Украина, Беларусь, Литва

Жанр: Комедия, детектив, мистический

Продолжительность: 16 x ~ 00:54:40
Перевод: Не требуется
Субтитры: Украинские (не отключаемые)

Режиссер: Николай Каптан

В ролях: Джеймс Тратас, Сергей Новицкий, Олег Иваница, Игорь Тильтиков, Василий Мазур, Размик Задоян, Леся Островская, Татьяна Коновалова, Тамара Антропова, Денис Фалюта, Михаил Жонин, Сергей Детюк, Эвелина Сакуро

Описание: "Заклятые друзья" – это адаптация популярного испанского сериала "Ольмос и Роблес", но история претерпела кардинальные изменения, поэтому нас зрителей ждет совершенно уникальный продукт! По сюжету, в небольшом тихом городке произошло зверское убийство. Местный сыщик Попеску и его помощник Охламонов не сталкивались с таким раньше, поэтому из столицы приезжает один из лучших полицейских Роберт. Гость пытается найти убийцу, а местные полицейские своими нелепыми действиями только мешают ему..
Качество: HDTVRip
Формат: AVI
Видео: XviD, ~ 1600 Кбит/с, 720x400, 25 кадр/с
Аудио: Русский, AC3, 2 ch, 192 Кбит/сек
Общее
Полное имя : D:\Заклятые друзья.s01.(2019).HDTVRip.by.Nicodem.Files-x\01.Заклятые друзья.s01.E01.(2019).HDTVRip.by.Nicodem.Files-x.avi
Формат : AVI
Формат/Информация : Audio Video Interleave
Размер файла : 692 Мбайт
Продолжительность : 53 м. 41 с.
Общий поток : 1801 Кбит/сек
Программа кодирования : VirtualDubMod 1.5.10.3 | www.virtualdub-fr.org || (build 2550/release)
Библиотека кодирования : VirtualDubMod build 2550/release

Видео
Идентификатор : 0
Формат : MPEG-4 Visual
Профиль формата : Advanced Simple@L5
Настройки формата : BVOP1 / Custom Matrix
Параметр BVOP формата : 1
Параметр QPel формата : Нет
Параметр GMC формата : Без точки перехода
Параметр матрицы формата : Выборочная
Идентификатор кодека : XVID
Идентификатор кодека/Подсказка : XviD
Продолжительность : 53 м. 41 с.
Битрейт : 1600 Кбит/сек
Ширина : 720 пикселей
Высота : 400 пикселей
Соотношение сторон : 16:9
Частота кадров : 25,000 кадров/сек
Цветовое пространство : YUV
Субдискретизация насыщенности : 4:2:0
Битовая глубина : 8 бит
Тип развёртки : Прогрессивная
Метод сжатия : С потерями
Бит/(Пиксели*Кадры) : 0.222
Размер потока : 614 Мбайт (89%)
Библиотека кодирования : XviD 73

Аудио
Идентификатор : 1
Формат : AC-3
Формат/Информация : Audio Coding 3
Коммерческое название : Dolby Digital
Идентификатор кодека : 2000
Продолжительность : 53 м. 41 с.
Вид битрейта : Постоянный
Битрейт : 192 Кбит/сек
Каналы : 2 канала
ChannelLayout : L R
Частота : 48,0 КГц
Частота кадров : 31,250 кадров/сек (1536 SPF)
Метод сжатия : С потерями
Размер потока : 73,7 Мбайт (11%)
Выравнивание : Разделение по промежуткам
Продолжительность промежутка : 40 мс. (1,00 видеокадр)
Время предзагрузки промежутка : 500 мс.
ServiceKind/String : Complete Main

pb.wtf



Скачать Заклятые друзья через торрент http://pic1.kartinco.top/images/12/8lpta.jpg Скачать фильм Заклятые друзья через торрент бесплантно в хорошем качестве Описание: "Заклятые друзья" – это адаптация популярного испанского сериала "Ольмос и Роблес", но история претерпела кардинальные изменения, ... 7.8 10 4
Торрент: Зарегистрирован [2020-05-22 12:15] · скачан: 32 раз
Статус: √ проверено
Размер: 10.45 GB
Как cкачать? Как скачать Заклятые друзья через торрент | qTorrent



Последний раз редактировалось: Леонид Ильич (2020-05-23 19:04), всего редактировалось 3 раз(а)

28-11-2019 20:33  

Отключить всю рекламу на сайте

    Дорогой пользователь! Огромная просьба, поблагодарите релизера, оцените раздачу и оставьте свои комментарий, если Вы скачали Заклятые друзья через торрент бесплатно! Внесите свою лепту в развитие PiratBit!
    Комментировать посты могут только пользователи прошедшие не сложную регистрацию
    Показать сообщения:    

    Заклятые друзья через торрент
    Скачать бесплатно Заклятые друзья
    Заклятые друзья скачать торрент
    Заклятые друзья смотреть онлайн
    Cкачать фильм Заклятые друзья бесплатно
    Заклятые друзья скачать торрент в хорошем качестве
    Заклятые друзья смотреть онлайн бесплатно в хорошем качестве


    Вы не можете начинать темы
    Вы не можете отвечать на сообщения
    Вы не можете редактировать свои сообщения
    Вы не можете удалять свои сообщения
    Вы не можете голосовать в опросах
    Вы не можете прикреплять файлы к сообщениям
    Вы можете скачивать файлы