Ссылка на приватное зеркало всего за 1$. Внимание количество ограничено!!!

iTunes

iTunes

iTunes

1

iTunes

iTunes

iTunes

iTunes

iTunes

30
pack

$ от Little Big

ВАЖНО

!!Акция!!

Alien_RageХит недели

RePack

Resident Evil 21

ИГРА 18+

pack

RePack

jed

!!Акция!!

Alien_Rage

RePack

fifa19

RePack

Assassins Creed: Odyssey

RePack

NEED FOR SPEED™ PAYBACK

4 сезон

9 сезон

Бесстыжие 9 сезон

Все сериалы

все сериалы на PB.wtf

RePack

FAR CRY 5
  

1917 / 1917 (Сэм Мендес) [2019, военный, боевик, драма, история, BDRip 720p] [Dub] + 3x[AVO] (Сербин, Назаров, Гаевский) pb.wtf

1917 через торрент pb.wtf

Раздают: 2 [ 12 KB/s ] Качают: 1 [ 0 KB/s ]
Размер: 7.05 GB | Добавлен: 5 д. назад | Торрент скачан:19 раз
Скачать  

22-05-2020 14:31 1917 Скачать торрент  

1917 / 1917Год выпуска: 2019
Страна: США, Великобритания, Индия, Испания, Канада
Жанр: военный, боевик, драма, история
Продолжительность: 01:58:58
Перевод: профессиональный (дублированный) Blu-ray
Перевод: авторский (одноголосый закадровый) - Юрий Сербин
Перевод: авторский (одноголосый закадровый) - Вадим Назаров
Перевод: авторский (одноголосый закадровый) - Евгений Гаевский
Субтитры: русские, английские

Режиссер: Сэм Мендес / Sam Mendes

В ролях: Джордж Маккэй, Дин-Чарльз Чепмен, Марк Стронг, Эндрю Скотт, Ричард Мэдден, Клэр Дюбюрк, Колин Фёрт, Бенедикт Камбербэтч, Дэниэл Мейс, Эдриан Скарборо

Описание: 6 апреля 1917 года, разгар Первой мировой войны, Западный фронт на севере Франции. Британский генерал поручает капралу Блэйку и его сослуживцу смертельно опасную миссию. Они должны пересечь вражескую территорию, вроде бы оставленную германскими войсками, и доставить приказ об отмене наступления во 2-й батальон Девонширского полка, иначе 1600 солдат попадут в ловушку противника, в том числе и брат Блэйка.
rating
Sample / Зеркало

Качество: BDRip 720p
Формат: MKV
Видео: H.264, 1280x536 (2.39:1), 5175 kbps, 23.976 fps
Аудио №1: Russian, AC3, 6ch, 48 kHz, 640 kbps (Дубляж)
Аудио №2: Russian, AC3, 6ch, 48 kHz, 640 kbps (Одноголосый, Сербин)
Аудио №3: Russian, AC3, 6ch, 48 kHz, 640 kbps (Одноголосый, Назаров)
Аудио №4: Russian, AC3, 6ch, 48 kHz, 640 kbps (Одноголосый, Гаевский)
Аудио №5: English, AC3, 6ch, 48 kHz, 448 kbps (Оригинал)
Аудио №6: English, AAC-LC, 2ch, 48 kHz, ~100 kbps (Комментарии режиссера Сэма Мендеса)
Аудио №7: English, AAC-LC, 2ch, 48 kHz, ~101 kbps (Комментарии оператора Роджера Дикинса)
Субтитры №1: Russian, SRT, форсированные
Субтитры №2: Russian, SRT, полные
Субтитры №3: English, SRT, полные

Цитата:

Перевод Ю.Сербина доступен благодаря пользователям форумов:
E180: oleg-k, oldeuboi, chontvari, luka69, Redlline, barvinok13, planshetist, Gross1978, dir, пуля, kvarta7, uchitel538, литти_07, Evromaster, Dyermaker, Ramis, Dervish, aka Frid.
TeamHD: digitus, exact, ilfat1975, podorov92, zlodei24, alexeycezar, shmidd, Jonnikl, Bacchus, CallistyaniN.
RuTracker: kikoru1, Andresofff, apollion2007.
Перевод В.Назарова доступен благодаря участникам TeamHD: unitedbits, goriathid, alexeycezar, digitus.
E180: Serene, Evromaster, chontvari, Nadoelo, donlego33, kiruxa-k, uchitel538, planshetist, matrox, Gross1978, ZLODEY, 2vova2, Dyermaker, литти_07, phaeton77, пуля, Lee Ray, pestel.
Перевод Е.Гаевского доступен благодаря: Mednik, potroks, Omen, zav25, Loki1982, mestreo2110, dikii, iVov4ik, Mandor1972, stimco.

  • Для съемок фильма было вырыто более полутора километров траншей.
  • 6 месяцев потребовалось на репетицию всех сцен перед началом съемок.
  • В районе Лоу Форс, на реке Тис, Тисдейл, где снимался фильм, были установлены знаки, предупреждающие людей, что разбросанные вокруг участка тела – это манекены.
  • Фильм снимали длинными отрывками (до 8 с половиной минут), а затем смонтировали так, чтобы он выглядел одним целым дублем.
  • Специалисты по охране природных ресурсов, обеспокоенные тем, что съемки на равнине Солсбери, что неподалеку от Стоунхенджа, могут повредить гипотетическим местам захоронения, попросили провести археологические исследования до начала строительства какого-либо объекта.
  • Оскар, 2020 год

    Победитель (3):
    * Лучшая работа оператора
    * Лучший звук
    * Лучшие визуальные эффекты

    Номинации (7):
    * Лучший фильм
    * Лучший режиссер (Сэм Мендес)
    * Лучший сценарий
    * Лучшая работа художника-постановщика
    * Лучший монтаж звука
    * Лучший грим и прически
    * Лучший саундтрек

    Золотой глобус, 2020 год

    Победитель (2):
    * Лучший фильм (драма)
    * Лучший режиссер ( Сэм Мендес )

    Номинации (1):
    * Лучший саундтрек

    Британская академия, 2020 год

    Победитель (7):
    * Лучший фильм
    * Лучший режиссер ( Сэм Мендес )
    * Лучшая работа оператора ( Роджер Дикинс )
    * Лучший звук
    * Лучшие визуальные эффекты
    * Лучший британский фильм
    * Лучшая работа художника-постановщика ( Деннис Гасснер , Ли Сандалес )

    Номинации (2):
    * Лучший саундтрек
    * Лучший грим/прически
    Format : Matroska
    Format version : Version 2
    File size : 7.05 GiB
    Duration : 1 h 58 min
    Overall bit rate : 8 482 kb/s
    Movie name : 1917 (2019) BDRip 720p
    Encoded date : UTC 2020-05-28 15:53:13
    Writing application : mkvmerge v45.0.0 ('Heaven in Pennies') 64-bit
    Writing library : libebml v1.3.10 + libmatroska v1.5.2
    Cover : Yes
    Attachments : Cover.jpg

    Video
    ID : 1
    Format : AVC
    Format/Info : Advanced Video Codec
    Format profile : High@L4.1
    Format settings : CABAC / 11 Ref Frames
    Format settings, CABAC : Yes
    Format settings, ReFrames : 11 frames
    Codec ID : V_MPEG4/ISO/AVC
    Duration : 1 h 58 min
    Bit rate : 5 268 kb/s
    Width : 1 280 pixels
    Height : 536 pixels
    Display aspect ratio : 2.40:1
    Frame rate mode : Constant
    Frame rate : 23.976 (24000/1001) FPS
    Color space : YUV
    Chroma subsampling : 4:2:0
    Bit depth : 8 bits
    Scan type : Progressive
    Bits/(Pixel*Frame) : 0.320
    Stream size : 4.38 GiB (62%)
    Writing library : x264 core 160 r3000 33f9e14
    Encoding settings : cabac=1 / ref=11 / deblock=1:-3:-2 / analyse=0x3:0x133 / me=tesa / subme=11 / psy=1 / psy_rd=1.00:0.02 / mixed_ref=1 / me_range=32 / chroma_me=1 / trellis=2 / 8x8dct=1 / cqm=0 / deadzone=21,11 / fast_pskip=0 / chroma_qp_offset=-3 / threads=17 / lookahead_threads=4 / sliced_threads=0 / nr=0 / decimate=1 / interlaced=0 / bluray_compat=0 / constrained_intra=0 / bframes=16 / b_pyramid=2 / b_adapt=2 / b_bias=0 / direct=1 / weightb=1 / open_gop=0 / weightp=2 / keyint=250 / keyint_min=23 / scenecut=40 / intra_refresh=0 / rc_lookahead=40 / rc=crf / mbtree=0 / crf=16.0 / qcomp=0.67 / qpmin=0 / qpmax=69 / qpstep=4 / vbv_maxrate=62500 / vbv_bufsize=78125 / crf_max=0.0 / nal_hrd=none / filler=0 / ip_ratio=1.40 / pb_ratio=1.25 / aq=3:0.75 / zones=7400,12000,crf=15.5/19600,21300,crf=15.5/36950,43750,crf=15.5/78940,81830,crf=15.5/84530,88500,crf=15.5/94200,134700,crf=15.5/141300,146550,crf=15.5/148800,150750,crf=15.5
    Language : English
    Default : Yes
    Forced : No
    Color range : Limited
    Matrix coefficients : BT.709

    Audio #1
    ID : 2
    Format : AC-3
    Format/Info : Audio Coding 3
    Commercial name : Dolby Digital
    Codec ID : A_AC3
    Duration : 1 h 58 min
    Bit rate mode : Constant
    Bit rate : 640 kb/s
    Channel(s) : 6 channels
    Channel layout : L R C LFE Ls Rs
    Sampling rate : 48.0 kHz
    Frame rate : 31.250 FPS (1536 SPF)
    Bit depth : 16 bits
    Compression mode : Lossy
    Stream size : 545 MiB (8%)
    Title : Dub
    Language : Russian
    Service kind : Complete Main
    Default : Yes
    Forced : No

    Audio #2
    ID : 3
    Format : AC-3
    Format/Info : Audio Coding 3
    Commercial name : Dolby Digital
    Codec ID : A_AC3
    Duration : 1 h 58 min
    Bit rate mode : Constant
    Bit rate : 640 kb/s
    Channel(s) : 6 channels
    Channel layout : L R C LFE Ls Rs
    Sampling rate : 48.0 kHz
    Frame rate : 31.250 FPS (1536 SPF)
    Bit depth : 16 bits
    Compression mode : Lossy
    Stream size : 545 MiB (8%)
    Title : AVO, Serbin
    Language : Russian
    Service kind : Complete Main
    Default : No
    Forced : No

    Audio #3
    ID : 4
    Format : AC-3
    Format/Info : Audio Coding 3
    Commercial name : Dolby Digital
    Codec ID : A_AC3
    Duration : 1 h 58 min
    Bit rate mode : Constant
    Bit rate : 640 kb/s
    Channel(s) : 6 channels
    Channel layout : L R C LFE Ls Rs
    Sampling rate : 48.0 kHz
    Frame rate : 31.250 FPS (1536 SPF)
    Bit depth : 16 bits
    Compression mode : Lossy
    Stream size : 545 MiB (8%)
    Title : VO, Nazarov
    Language : Russian
    Service kind : Complete Main
    Default : No
    Forced : No

    Audio #4
    ID : 5
    Format : AC-3
    Format/Info : Audio Coding 3
    Commercial name : Dolby Digital
    Codec ID : A_AC3
    Duration : 1 h 58 min
    Bit rate mode : Constant
    Bit rate : 640 kb/s
    Channel(s) : 6 channels
    Channel layout : L R C LFE Ls Rs
    Sampling rate : 48.0 kHz
    Frame rate : 31.250 FPS (1536 SPF)
    Bit depth : 16 bits
    Compression mode : Lossy
    Stream size : 545 MiB (8%)
    Title : VO, Gaevsky
    Language : Russian
    Service kind : Complete Main
    Default : No
    Forced : No

    Audio #5
    ID : 6
    Format : AC-3
    Format/Info : Audio Coding 3
    Commercial name : Dolby Digital
    Codec ID : A_AC3
    Duration : 1 h 58 min
    Bit rate mode : Constant
    Bit rate : 448 kb/s
    Channel(s) : 6 channels
    Channel layout : L R C LFE Ls Rs
    Sampling rate : 48.0 kHz
    Frame rate : 31.250 FPS (1536 SPF)
    Bit depth : 16 bits
    Compression mode : Lossy
    Stream size : 381 MiB (5%)
    Title : Original
    Language : English
    Service kind : Complete Main
    Default : No
    Forced : No

    Audio #6
    ID : 7
    Format : AAC LC
    Format/Info : Advanced Audio Codec Low Complexity
    Codec ID : A_AAC-2
    Duration : 1 h 58 min
    Bit rate : 100 kb/s
    Channel(s) : 2 channels
    Channel layout : L R
    Sampling rate : 48.0 kHz
    Frame rate : 46.875 FPS (1024 SPF)
    Compression mode : Lossy
    Delay relative to video : 9 ms
    Stream size : 85.4 MiB (1%)
    Title : Commentary, Sam Mendes
    Language : English
    Default : No
    Forced : No

    Audio #7
    ID : 8
    Format : AAC LC
    Format/Info : Advanced Audio Codec Low Complexity
    Codec ID : A_AAC-2
    Duration : 1 h 58 min
    Bit rate : 101 kb/s
    Channel(s) : 2 channels
    Channel layout : L R
    Sampling rate : 48.0 kHz
    Frame rate : 46.875 FPS (1024 SPF)
    Compression mode : Lossy
    Delay relative to video : 9 ms
    Stream size : 86.0 MiB (1%)
    Title : Commentary, Roger Dikins
    Language : English
    Default : No
    Forced : No

    Text #1
    ID : 9
    Format : UTF-8
    Codec ID : S_TEXT/UTF8
    Codec ID/Info : UTF-8 Plain Text
    Duration : 1 h 31 min
    Bit rate : 1 b/s
    Count of elements : 25
    Stream size : 1.30 KiB (0%)
    Title : Forced
    Language : Russian
    Default : Yes
    Forced : No

    Text #2
    ID : 10
    Format : UTF-8
    Codec ID : S_TEXT/UTF8
    Codec ID/Info : UTF-8 Plain Text
    Duration : 1 h 49 min
    Bit rate : 57 b/s
    Count of elements : 837
    Stream size : 45.7 KiB (0%)
    Title : Full
    Language : Russian
    Default : No
    Forced : No

    Text #3
    ID : 11
    Format : UTF-8
    Codec ID : S_TEXT/UTF8
    Codec ID/Info : UTF-8 Plain Text
    Duration : 1 h 45 min
    Bit rate : 35 b/s
    Count of elements : 937
    Stream size : 27.1 KiB (0%)
    Title : Full
    Language : English
    Default : No
    Forced : No

    Menu
    00:00:00.000 : en:Chapter 01
    00:04:59.424 : en:Chapter 02
    00:08:19.374 : en:Chapter 03
    00:13:26.639 : en:Chapter 04
    00:16:38.789 : en:Chapter 05
    00:23:32.494 : en:Chapter 06
    00:30:28.660 : en:Chapter 07
    00:35:34.549 : en:Chapter 08
    00:42:25.376 : en:Chapter 09
    00:51:34.091 : en:Chapter 10
    00:56:36.310 : en:Chapter 11
    01:02:29.079 : en:Chapter 12
    01:06:33.573 : en:Chapter 13
    01:12:04.320 : en:Chapter 14
    01:19:45.197 : en:Chapter 15
    01:28:47.822 : en:Chapter 16
    01:33:43.451 : en:Chapter 17
    01:38:11.594 : en:Chapter 18
    01:41:43.681 : en:Chapter 19
    01:49:46.580 : en:Chapter 20
    x264 [info]: frame I:687 Avg QP:12.93 size:122323
    x264 [info]: frame P:51304 Avg QP:15.42 size: 46527
    x264 [info]: frame B:119137 Avg QP:17.04 size: 18711
    x264 [info]: consecutive B-frames: 6.8% 10.7% 15.1% 23.9% 12.8% 22.0% 2.9% 0.9% 0.6% 0.6% 0.6% 1.0% 0.6% 0.4% 0.2% 0.4% 0.4%
    x264 [info]: mb I I16..4: 5.1% 75.9% 19.0%
    x264 [info]: mb P I16..4: 0.3% 11.0% 1.4% P16..4: 24.8% 33.1% 21.2% 6.0% 0.7% skip: 1.6%
    x264 [info]: mb B I16..4: 0.1% 1.9% 0.4% B16..8: 32.2% 27.9% 7.7% direct: 7.2% skip:22.6% L0:42.9% L1:38.2% BI:18.8%
    x264 [info]: 8x8 transform intra:84.2% inter:53.4%
    x264 [info]: coded y,uvDC,uvAC intra: 92.9% 88.9% 79.0% inter: 38.3% 27.6% 9.3%
    x264 [info]: i16 v,h,dc,p: 38% 16% 6% 41%
    x264 [info]: i8 v,h,dc,ddl,ddr,vr,hd,vl,hu: 12% 11% 10% 9% 12% 10% 13% 10% 14%
    x264 [info]: i4 v,h,dc,ddl,ddr,vr,hd,vl,hu: 12% 8% 20% 7% 12% 10% 12% 8% 11%
    x264 [info]: i8c dc,h,v,p: 46% 27% 14% 13%
    x264 [info]: Weighted P-Frames: Y:7.1% UV:4.6%
    x264 [info]: ref P L0: 50.5% 14.7% 13.3% 5.3% 4.1% 3.2% 2.8% 1.6% 1.5% 1.4% 1.4% 0.2% 0.0%
    x264 [info]: ref B L0: 73.2% 10.7% 5.6% 2.9% 2.2% 1.9% 1.6% 1.0% 0.7% 0.3%
    x264 [info]: ref B L1: 95.3% 4.7%
    x264 [info]: kb/s:5268.23

    encoded 171128 frames, 3.92 fps, 5268.23 kb/s

    скриншот  скриншот  скриншот  
    pb.wtf



    Скачать 1917 через торрент https://i111.fastpic.ru/big/2020/0326/cc/8802bad4d5eb23e5ee58319c37d49fcc.jpg Скачать фильм 1917 через торрент бесплантно в хорошем качестве Описание: 6 апреля 1917 года, разгар Первой мировой войны, Западный фронт на севере Франции. Британский генерал поручает капралу Блэйку и ... 6.7 10 3
    Торрент: Зарегистрирован [2020-05-30 07:31] · скачан: 19 раз
    Статус: √ проверено
    Размер: 7.05 GB
    Как cкачать? Как скачать 1917 через торрент | qTorrent

    % Раздел Тема Автор DL S | L
    Ultra HD (UHD: 2K, 4K, 8K) — видео сверхвысокой чёткости [ 11.51 GB ] 1917 / 1917 [2019 Военный история UHD BDRip 2160p] DUB ] bober100 Скачать
    1 | 1
    Ultra HD (UHD: 2K, 4K, 8K) — видео сверхвысокой чёткости [ 62.4 GB ] 1917 / 1917 [2019 Военный история UHD BDRemux 2160p] DUB [] bober100 Скачать
    1 | 0
    Фильмы 2019-2020 [DVDrip, WEB-DLRip, HDrip] (DUB, MVO) [ 2.18 GB ] 1917 / 1917 [2019 Военный история BDRip] - [] Twi7ter Скачать
    9 | 0
    Фильмы 2019-2020 [DVDrip, WEB-DLRip, HDrip] (DUB, MVO) [ 2.34 GB ] 1917 / 1917 [2019 Военный история BDRip-AVC] - [] - ExKinoRay Enigma2010 Скачать
    5 | 0
    Фильмы (Blu-ray, BD-Remux, HDDVD) [ 38.7 GB ] 1917 / 1917 [2019 Военный история Blu-Ray EUR 1080p] DUB [] bober100 Скачать
    2 | 0
    Фильмы 2019-2020 [DVDrip, WEB-DLRip, HDrip] (DUB, MVO) [ 747 MB ] 1917 / 1917 [2019 Военный история HDRip] bober100 Скачать
    1 | 0
    Фильмы 2019-2020 [DVDrip, WEB-DLRip, HDrip] (DUB, MVO) [ 1.46 GB ] 1917 / 1917 [2019 Военный история BDRip] - [] Twi7ter Скачать
    186 | 9

    28-11-2019 20:33  

    Отключить всю рекламу на сайте

      Дорогой пользователь! Огромная просьба, поблагодарите релизера, оцените раздачу и оставьте свои комментарий, если Вы скачали 1917 через торрент бесплатно! Внесите свою лепту в развитие PiratBit!
      Комментировать посты могут только пользователи прошедшие не сложную регистрацию
      Показать сообщения:    

      1917 через торрент
      Скачать бесплатно 1917
      1917 скачать торрент
      1917 смотреть онлайн
      Cкачать фильм 1917 бесплатно
      1917 скачать торрент в хорошем качестве
      1917 смотреть онлайн бесплатно в хорошем качестве


      Вы не можете начинать темы
      Вы не можете отвечать на сообщения
      Вы не можете редактировать свои сообщения
      Вы не можете удалять свои сообщения
      Вы не можете голосовать в опросах
      Вы не можете прикреплять файлы к сообщениям
      Вы можете скачивать файлы