Ссылка на приватное зеркало всего за 1$. Внимание количество ограничено!!!

iTunes

iTunes

iTunes

1

iTunes

iTunes

iTunes

iTunes

iTunes

30
pack

$ от Little Big

ВАЖНО

!!Акция!!

Alien_RageХит недели

RePack

Resident Evil 21

ИГРА 18+

pack

RePack

jed

!!Акция!!

Alien_Rage

RePack

fifa19

RePack

Assassins Creed: Odyssey

RePack

NEED FOR SPEED™ PAYBACK

4 сезон

9 сезон

Бесстыжие 9 сезон

Все сериалы

все сериалы на PB.wtf

RePack

FAR CRY 5
  

Пеплопад / Baekdusan / Ashfall (Ли Хэ-джун, Ким Бён-со) [2019, боевик, катастрофа, BDRip 720p] [MVO] (HDRezka Studio) pb.wtf

Пеплопад через торрент pb.wtf

Раздают: 3 [ 0 KB/s ]
Размер: 3.25 GB | Добавлен: 10 д. назад | Торрент скачан:41 раз
Скачать  

22-05-2020 14:59 Пеплопад Скачать торрент  

Пеплопад / Baekdusan / Ashfall
Год выпуска: 2019
Страна: Корея Южная
Жанр: боевик, катастрофа
Продолжительность: 02:08:11
Перевод: Профессиональный (многоголосый) *HDRezka Studio*
Субтитры: русские (forced)
Режиссёр: Ли Хэ-джун / Lee Hae-joon, Ким Бён-со / Kim Byeong-seo
В ролях: Ли Бён-хон, Ха Джон-у, Ма Дон-сок, Чон Хе-джин, Пэ Су-джи, Ли Сан-вон, Ок Ча-ён, Хан Сон-чхон, Кан Щин-чхоль, Ли Гён-ён
Описание:
Внезапная активность вулкана Пэктусан, расположенного на границе Северной Кореи и Китая, становится причиной подземных толчков в Сеуле. Местным ученым удается выяснить, что неизбежное извержение вулкана, которое должно произойти в ближайшее время, приведет к сильнейшим землетрясениям, многочисленным жертвам и серьезным разрушениям в Южной Кореи. Профессор геологии Кан Бон-Ра полагает, что единственный шанс остановить извержение — взорвать ядерную бомбу под вулканом. Для выполнения опасного задания приглашают опытного эксперта в утилизации взрывчатых веществ Чо Ин-Чана, чья миссия осложняется необходимостью выкрасть ядерные заряды у Северной Кореи...

rating

Качество: BDRip 720p
Формат: MKV
Видео: V_MPEG4/ISO/AVC, 1280x536, 23.976 fps ~3 100 kbps avg
Аудио: 48 kHz, AC3 Dolby Digital, 6 ch, ~448 kbps avg
General
Unique ID : 226831729783356513033794567384455106404 (0xAAA633BB0933B1253FD34BE2FB12CF64)
Complete name : G:\Ashfall.2019.BDRip.720p.rus.5.1.HDREZKA.STUDIO.mkv
Format : Matroska
Format version : Version 4 / Version 2
File size : 3.25 GiB
Duration : 2h 8mn
Overall bit rate mode : Variable
Overall bit rate : 3 625 Kbps
Encoded date : UTC 2020-05-22 03:50:22
Writing application : mkvmerge v28.2.0 ('The Awakening') 64-bit
Writing library : libebml v1.3.6 + libmatroska v1.4.9

Video
ID : 1
Format : AVC
Format/Info : Advanced Video Codec
Format profile : High@L4.1
Format settings, CABAC : Yes
Format settings, ReFrames : 1 frame
Codec ID : V_MPEG4/ISO/AVC
Duration : 2h 8mn
Bit rate mode : Variable
Bit rate : 3 105 Kbps
Maximum bit rate : 2 000 Kbps
Width : 1 280 pixels
Height : 536 pixels
Display aspect ratio : 2.40:1
Frame rate mode : Constant
Frame rate : 23.976 fps
Color space : YUV
Chroma subsampling : 4:2:0
Bit depth : 8 bits
Scan type : Progressive
Bits/(Pixel*Frame) : 0.189
Stream size : 2.78 GiB (86%)
Default : Yes
Forced : No

Audio
ID : 2
Format : AC-3
Format/Info : Audio Coding 3
Mode extension : CM (complete main)
Format settings, Endianness : Big
Codec ID : A_AC3
Duration : 2h 8mn
Bit rate mode : Constant
Bit rate : 448 Kbps
Channel(s) : 6 channels
Channel positions : Front: L C R, Side: L R, LFE
Sampling rate : 48.0 KHz
Compression mode : Lossy
Stream size : 411 MiB (12%)
Language : Russian
Default : Yes
Forced : No

скриншот   скриншот   скриншот  
pb.wtf



Скачать Пеплопад через торрент https://i112.fastpic.ru/big/2020/0522/9a/07dea88f52a150e1a88aea0d64e7a09a.jpeg Скачать фильм Пеплопад через торрент бесплантно в хорошем качестве Описание:Внезапная активность вулкана Пэктусан, расположенного на границе Северной Кореи и Китая, становится причиной подземных толчков в ... 10 10 3
Торрент: Зарегистрирован [2020-05-22 14:59] · скачан: 41 раз
Статус: √ проверено
Размер: 3.25 GB
Как cкачать? Как скачать Пеплопад через торрент | qTorrent

% Раздел Тема Автор DL S | L
Азиатские фильмы [ 10.75 GB ] Пеплопад / Гора Пэкту / Baekdusan / Ashfall [2019 катастрофа BDRip 1080p] MVO [HDRezka Studio] +AVO [А.Дольский] bober100 Скачать
3 | 0
Фильмы с авторской озвучкой [ 1.46 GB ] Пеплопад / Baekdusan / Ashfall [2019 катастрофа BDRip] [AVO] killermax2013 Скачать
1 | 0

28-11-2019 20:33  

Отключить всю рекламу на сайте

    Дорогой пользователь! Огромная просьба, поблагодарите релизера, оцените раздачу и оставьте свои комментарий, если Вы скачали Пеплопад через торрент бесплатно! Внесите свою лепту в развитие PiratBit!
    Комментировать посты могут только пользователи прошедшие не сложную регистрацию
    Показать сообщения:    

    Пеплопад через торрент
    Скачать бесплатно Пеплопад
    Пеплопад скачать торрент
    Пеплопад смотреть онлайн
    Cкачать фильм Пеплопад бесплатно
    Пеплопад скачать торрент в хорошем качестве
    Пеплопад смотреть онлайн бесплатно в хорошем качестве


    Вы не можете начинать темы
    Вы не можете отвечать на сообщения
    Вы не можете редактировать свои сообщения
    Вы не можете удалять свои сообщения
    Вы не можете голосовать в опросах
    Вы не можете прикреплять файлы к сообщениям
    Вы можете скачивать файлы