Ссылка на приватное зеркало всего за 1$. Внимание количество ограничено!!!

iTunes

iTunes

iTunes

1

iTunes

iTunes

iTunes

iTunes

iTunes

30
pack

$ от Little Big

ВАЖНО

!!Акция!!

Alien_RageХит недели

RePack

Resident Evil 21

ИГРА 18+

pack

RePack

jed

!!Акция!!

Alien_Rage

RePack

fifa19

RePack

Assassins Creed: Odyssey

RePack

NEED FOR SPEED™ PAYBACK

4 сезон

9 сезон

Бесстыжие 9 сезон

Все сериалы

все сериалы на PB.wtf

RePack

FAR CRY 5
  

Старгёрл / Stargirl / Сезон: 1 / Серии: 1-3 из 13 (Энди Армаганян, Тоа Фрейзер, Роб Харди) [2020, Фантастика, фэнтези, боевик, криминал, приключения, WEB-DL 1080p] MVO [Lostfilm] pb.wtf

Старгёрл через торрент pb.wtf

Размер: 10.41 GB | Добавлен: 10 ч. назад | Торрент скачан:0 раз
Скачать  

22-05-2020 18:57 Старгёрл Скачать торрент  

Старгёрл | Stargirl
«***»
Год выпуска: 2020
Страна: США
Студия: Berlanti Productions, DC Comics, Mad Ghost Productions, Warner Bros. Television
Жанр: Фантастика, фэнтези, боевик, драма, криминал, приключения
Продолжительность: ~ 00:54:00
Перевод: Профессиональный (многоголосый) | Lostfilm
Субтитры: Английские

Режиссер: Энди Армаганян, Тоа Фрейзер, Роб Харди

rating


В ролях: Брэк Бэссинджер, Люк Уилсон, Анжелика Вашингтон, Кэмерон Джеллман, Джоэл МакХэйл, Нельсон Ли, Кристофер Джеймс Бэйкер, Мэг Келли, Нил Джексон, Ивет Монреаль и другие.

Описание: Кортни Уитмор (Брэк Бэссинджер) вместе с мамой Барбарой (Эми Смарт), отчимом Патом Дуганом (Люк Уилсон) и сводным братом Майком (Траэ Романо) переезжает из Лос-Анджелеса в провинциальный городок в штате Небраска. Когда однажды Кортни обнаруживает в вещах Пата Космический Посох, — наследие погибшего Стармена (Джоэл МакХэйл), — и артефакт внезапно отвечает ей, девушка решает использовать открывшиеся у нее сверхъестественные способности во имя добра. Пат, бывший помощник Стармена, возвращается к работе напарника супергероя, но на этот раз в качестве пилота гигантского робота. Узнав, что в маленьком городке практически у всех на виду прячутся злодеи, Старгёрл и Пат собирают команду, чтобы помешать планам врагов и спасти мир...

Качество: WEB-DL 1080p
Формат: MKV

Видео: MPEG-4 AVC, ~ 9396 Кбит/с, 1920x872
Аудио Rus: AC-3, 48 kHz, 2 ch, 384 kbps |Lostfilm|
Аудио Eng: E-AC-3, 48 kHz, 6 ch, 640 kbps |Original|
скриншот  скриншот  скриншот  

Общее
Уникальный идентификатор : 221224657838629849432658597903041885904 (0xA66E51BD6FC7CB53916146A9BB00F6D0)
Полное имя : C:\Stargirl.S01E01.1080p.rus.LostFilm.mkv
Формат : Matroska
Версия формата : Version 4 / Version 2
Размер файла : 3,87 Гбайт
Продолжительность : 53 м. 8 с.
Общий поток : 10,4 Мбит/сек
Дата кодирования : UTC 2020-05-22 18:08:35
Программа кодирования : mkvmerge v18.0.0 ('Apricity') 64-bit
Библиотека кодирования : libebml v1.3.5 + libmatroska v1.4.8

Видео
Идентификатор : 1
Формат : AVC
Формат/Информация : Advanced Video Codec
Профиль формата : High@L4
Настройки формата : CABAC / 4 Ref Frames
Параметр CABAC формата : Да
Параметр RefFrames формата : 4 кадра
Идентификатор кодека : V_MPEG4/ISO/AVC
Продолжительность : 53 м. 8 с.
Вид битрейта : Постоянный
Битрейт : 9396 Кбит/сек
Номинальный битрейт : 10000 Кбит/сек
Ширина : 1920 пикселей
Высота : 872 пикселя
Соотношение сторон : 2,2:1
Соотношение сторон в оригинале : 2,2:1
Режим частоты кадров : Постоянный
Частота кадров : 23,976 (24000/1001) кадра/сек
Цветовое пространство : YUV
Субдискретизация насыщенности : 4:2:0
Битовая глубина : 8 бит
Тип развёртки : Прогрессивная
Бит/(Пиксели*Кадры) : 0.234
Размер потока : 3,49 Гбайт (90%)
Язык : English
Default : Да
Forced : Нет
Цветовой диапазон : Limited
Основные цвета : BT.709
Характеристики трансфера : BT.709
Коэффициенты матрицы : BT.709

Аудио #1
Идентификатор : 2
Формат : AC-3
Формат/Информация : Audio Coding 3
Идентификатор кодека : A_AC3
Продолжительность : 53 м. 7 с.
Вид битрейта : Постоянный
Битрейт : 384 Кбит/сек
Каналы : 2 канала
Расположение каналов : Front: L R
Частота : 48,0 КГц
Частота кадров : 31,250 кадров/сек (1536 SPF)
Битовая глубина : 16 бит
Метод сжатия : С потерями
Размер потока : 146 Мбайт (4%)
Заголовок : LostFilm
Язык : Russian
ServiceKind/String : Complete Main
Default : Да
Forced : Нет

Аудио #2
Идентификатор : 3
Формат : E-AC-3
Формат/Информация : Enhanced Audio Coding 3
Идентификатор кодека : A_EAC3
Продолжительность : 53 м. 8 с.
Вид битрейта : Постоянный
Битрейт : 640 Кбит/сек
Каналы : 6 каналов
Расположение каналов : Front: L C R, Side: L R, LFE
Частота : 48,0 КГц
Частота кадров : 187,500 кадров/сек (256 SPF)
Метод сжатия : С потерями
Размер потока : 243 Мбайт (6%)
Язык : English
ServiceKind/String : Complete Main
Default : Нет
Forced : Нет

Текст #1
Идентификатор : 4
Формат : UTF-8
Идентификатор кодека : S_TEXT/UTF8
Идентификатор кодека/Информация : UTF-8 Plain Text
Продолжительность : 52 м. 11 с.
Битрейт : 45 бит/сек
ElementCount : 573
Размер потока : 17,6 Кбайт (0%)
Язык : English
Default : Нет
Forced : Нет

Текст #2
Идентификатор : 5
Формат : UTF-8
Идентификатор кодека : S_TEXT/UTF8
Идентификатор кодека/Информация : UTF-8 Plain Text
Продолжительность : 52 м. 39 с.
Битрейт : 53 бит/сек
ElementCount : 712
Размер потока : 20,5 Кбайт (0%)
Заголовок : SDH
Язык : English
Default : Нет
Forced : Нет

Когда раздача ведётся путём добавления новых серий, при каждом добавлении создётся новый торрент. Чтобы начать докачку новой серии, пользователям необходимо сделать следующее:
(1) остановить скачивание,
(2) удалить старый торрент у себя из клиента (старые серии удалять не надо),
(3) скачать новый торрент и запустить его у себя в клиенте вместо старого, при этом указать клиенту путь в старую папку, куда и должно происходить скачивание новых серий.
Ваш клиент при этом должен произвести хеширование (проверку) старой папки (если не производит сам - помогите ему сделать это), и будет докачивать только те серии, которых у вас ещё нет. Старые серии при этом не удаляются, а продолжают раздаваться!
Eсли вы уже удалили старые серии, то предотвратить повторную закачку старых серий можно, отжав галочку в соответсвующих местах при запуске нового торрента. По возможности, желательно не удалять старые серии как можно дольше, чтобы релизер не столько продолжал раздавать старые серии, а смог сконцентрироваться на новых.
pb.wtf



Скачать Старгёрл через торрент https://i4.imageban.ru/out/2020/05/22/e0e929efa6a50ed07a1bff275f3517f6.png Скачать фильм Старгёрл через торрент бесплантно в хорошем качестве Описание: Кортни Уитмор (Брэк Бэссинджер) вместе с мамой Барбарой (Эми Смарт), отчимом Патом Дуганом (Люк Уилсон) и сводным братом Майком ... 10 10 3
Торрент: Зарегистрирован [2020-06-04 16:53] · скачан: 0 раз
Статус: √ проверено
Размер: 10.41 GB
Как cкачать? Как скачать Старгёрл через торрент | qTorrent

% Раздел Тема Автор DL S | L
T Зарубежные сериалы [ 7.37 GB ] Старгёрл / Stargirl / Сезон: 1 / Серии: 1-3 из 13 [2020 WEBRip 1080p] DVO [Kerob] bober100 Скачать
2 | 2
Зарубежные сериалы [ 5.51 GB ] Старгёрл / Stargirl / Сезон: 1 / Серии: 1-3 из 13 [2020 WEB-DL 720p] MVO [Lostfilm] bober100 Скачать
3 | 1

28-11-2019 20:33  

Отключить всю рекламу на сайте

    Дорогой пользователь! Огромная просьба, поблагодарите релизера, оцените раздачу и оставьте свои комментарий, если Вы скачали Старгёрл через торрент бесплатно! Внесите свою лепту в развитие PiratBit!
    Комментировать посты могут только пользователи прошедшие не сложную регистрацию
    Показать сообщения:    

    Старгёрл через торрент
    Скачать бесплатно Старгёрл
    Старгёрл скачать торрент
    Старгёрл смотреть онлайн
    Cкачать фильм Старгёрл бесплатно
    Старгёрл скачать торрент в хорошем качестве
    Старгёрл смотреть онлайн бесплатно в хорошем качестве


    Вы не можете начинать темы
    Вы не можете отвечать на сообщения
    Вы не можете редактировать свои сообщения
    Вы не можете удалять свои сообщения
    Вы не можете голосовать в опросах
    Вы не можете прикреплять файлы к сообщениям
    Вы можете скачивать файлы