Ссылка на приватное зеркало всего за 1$. Внимание количество ограничено!!!

iTunes

iTunes

iTunes

1

iTunes

iTunes

iTunes

iTunes

iTunes

30
pack

$ от Little Big

ВАЖНО

!!Акция!!

Alien_RageХит недели

RePack

Resident Evil 21

ИГРА 18+

pack

RePack

jed

!!Акция!!

Alien_Rage

RePack

fifa19

RePack

Assassins Creed: Odyssey

RePack

NEED FOR SPEED™ PAYBACK

4 сезон

9 сезон

Бесстыжие 9 сезон

Все сериалы

все сериалы на PB.wtf

RePack

FAR CRY 5
  

Легенды завтрашнего дня / DC's Legends of Tomorrow / Сезон: 5 / Серии: 1-13 из 16 (Дэвид Геддес, Дермотт Даунс, Грегори Смит) [2020, Фантастика, приключения, боевик, WEBRip 1080p] MVO [LostFilm] pb.wtf

Легенды завтрашнего дня через торрент pb.wtf

Размер: 38.97 GB | Добавлен: 10 д. назад | Торрент скачан:7 раз
Скачать  

22-05-2020 19:21 Легенды завтрашнего дня Скачать торрент  

Легенды завтрашнего дня | DC's Legends of Tomorrow
Год выпуска: 2020
Страна: США
Жанр: Фантастика, приключения, боевик
Продолжительность: ~ 00:43:00
Перевод: Профессиональный (многоголосый) | LostFilm
Субтитры: Английские

Режиссер: Дэвид Геддес, Дермотт Даунс, Грегори Смит

rating

В ролях: Артур Дарвилл, Мэйси Ричардсон-Селлерс, Ник Зано, Франц Драмех, Доминик Пёрселл, Эми Пембертон, Кейти Лотц, Брэндон Рут, Виктор Гарбер

Описание: Увидев будущее, которого обязательно нужно избежать, Рип Хантер, путешественник во времени, собирает команду из героев и злодеев, чтобы противостоять смертельной угрозе. На кону стоит не только наша планета, но и все время в целом. Сможет ли эта команда победить бессмертное зло, абсолютно непохожее на то, что они видели раньше?

Качество: WEBRip 1080p
Формат: MKV

Видео: MPEG-4 AVC, 8935 Кбит/с, 1920x1080, 23.976 fps
Аудио#1: Русский, AC3, 48 kHz, 2 ch, 384 kbps
Аудио#2: Английский, E-AC3, 48 kHz, 6 ch, 640 kbps
скриншот  скриншот  скриншот  скриншот  

Общее
Уникальный идентификатор : 185470015008679557459236705168482283695 (0x8B8839BEE5CACAF59282318E454EB0AF)
Полное имя : C:\DCs.Legends.of.Tomorrow.S05E01.1080p.rus.LostFilm.mkv
Формат : Matroska
Версия формата : Version 4 / Version 2
Размер файла : 2,95 Гбайт
Продолжительность : 42 м. 19 с.
Общий поток : 9962 Кбит/сек
Дата кодирования : UTC 2020-01-17 12:27:20
Программа кодирования : mkvmerge v18.0.0 ('Apricity') 64-bit
Библиотека кодирования : libebml v1.3.5 + libmatroska v1.4.8

Видео
Идентификатор : 1
Формат : AVC
Формат/Информация : Advanced Video Codec
Профиль формата : High@L4
Настройки формата : CABAC / 4 Ref Frames
Параметр CABAC формата : Да
Параметр RefFrames формата : 4 кадра
Идентификатор кодека : V_MPEG4/ISO/AVC
Продолжительность : 42 м. 19 с.
Вид битрейта : Постоянный
Битрейт : 8935 Кбит/сек
Номинальный битрейт : 10000 Кбит/сек
Ширина : 1920 пикселей
Высота : 1080 пикселей
Соотношение сторон : 16:9
Режим частоты кадров : Постоянный
Частота кадров : 23,976 (24000/1001) кадра/сек
Цветовое пространство : YUV
Субдискретизация насыщенности : 4:2:0
Битовая глубина : 8 бит
Тип развёртки : Прогрессивная
Бит/(Пиксели*Кадры) : 0.180
Размер потока : 2,64 Гбайт (90%)
Язык : English
Default : Да
Forced : Нет
Цветовой диапазон : Limited
Основные цвета : BT.709
Характеристики трансфера : BT.709
Коэффициенты матрицы : BT.709

Аудио #1
Идентификатор : 2
Формат : AC-3
Формат/Информация : Audio Coding 3
Идентификатор кодека : A_AC3
Продолжительность : 42 м. 19 с.
Вид битрейта : Постоянный
Битрейт : 384 Кбит/сек
Каналы : 2 канала
Расположение каналов : Front: L R
Частота : 48,0 КГц
Частота кадров : 31,250 кадров/сек (1536 SPF)
Битовая глубина : 16 бит
Метод сжатия : С потерями
Размер потока : 116 Мбайт (4%)
Заголовок : LostFilm
Язык : Russian
ServiceKind/String : Complete Main
Default : Да
Forced : Нет

Аудио #2
Идентификатор : 3
Формат : E-AC-3
Формат/Информация : Enhanced Audio Coding 3
Идентификатор кодека : A_EAC3
Продолжительность : 42 м. 19 с.
Вид битрейта : Постоянный
Битрейт : 640 Кбит/сек
Каналы : 6 каналов
Расположение каналов : Front: L C R, Side: L R, LFE
Частота : 48,0 КГц
Частота кадров : 187,500 кадров/сек (256 SPF)
Метод сжатия : С потерями
Размер потока : 194 Мбайт (6%)
Язык : English
ServiceKind/String : Complete Main
Default : Нет
Forced : Нет

Текст #1
Идентификатор : 4
Формат : UTF-8
Идентификатор кодека : S_TEXT/UTF8
Идентификатор кодека/Информация : UTF-8 Plain Text
Продолжительность : 42 м. 11 с.
Битрейт : 68 бит/сек
ElementCount : 725
Размер потока : 21,3 Кбайт (0%)
Язык : English
Default : Нет
Forced : Нет

Текст #2
Идентификатор : 5
Формат : UTF-8
Идентификатор кодека : S_TEXT/UTF8
Идентификатор кодека/Информация : UTF-8 Plain Text
Продолжительность : 42 м. 11 с.
Битрейт : 75 бит/сек
ElementCount : 871
Размер потока : 23,3 Кбайт (0%)
Заголовок : SDH
Язык : English
Default : Нет
Forced : Нет

Внимание! Раздача ведётся путём добавления новых серий; при каждом добавлении создаётся новый торрент. Чтобы начать докачку новой серии, пользователям необходимо сделать следующее:
(1) остановить скачивание,
(2) удалить старый торрент у себя из клиента (старые серии удалять не надо),
(3) скачать новый торрент и запустить его у себя в клиенте вместо старого, при этом указать клиенту путь в старую папку куда и должно происходить скачивание новых серий.

Ваш клиент при этом должен произвести хеширование (проверку) старой папки (если не производит сам - помогите ему сделать это), и будет докачивать только те серии которых у вас ещё нет. Старые серии при этом не удаляются, а продолжают раздаваться!

Eсли вы уже удалили старые серии, то предотвратить повторную закачку старых серий можно, отжав галочку в соответсвующих местах при запуске нового торрента. По возможности, желательно не удалять старые серии как можно дольше чтобы релизёр не столько продолжал раздавать старые серии, а смог сконцентрироваться на новых.
pb.wtf



Скачать Легенды завтрашнего дня через торрент https://d.radikal.ru/d12/2001/23/2a3dc9acc0f9.jpg Скачать фильм Легенды завтрашнего дня через торрент бесплантно в хорошем качестве Описание: Увидев будущее, которого обязательно нужно избежать, Рип Хантер, путешественник во времени, собирает команду из героев и злодеев, ... 10 10 3
Торрент: Зарегистрирован [2020-05-22 19:21] · скачан: 7 раз
Статус: √ проверено
Размер: 38.97 GB
Как cкачать? Как скачать Легенды завтрашнего дня через торрент | qTorrent

28-11-2019 20:33  

Отключить всю рекламу на сайте

    Дорогой пользователь! Огромная просьба, поблагодарите релизера, оцените раздачу и оставьте свои комментарий, если Вы скачали Легенды завтрашнего дня через торрент бесплатно! Внесите свою лепту в развитие PiratBit!
    Комментировать посты могут только пользователи прошедшие не сложную регистрацию
    Показать сообщения:    

    Легенды завтрашнего дня через торрент
    Скачать бесплатно Легенды завтрашнего дня
    Легенды завтрашнего дня скачать торрент
    Легенды завтрашнего дня смотреть онлайн
    Cкачать фильм Легенды завтрашнего дня бесплатно
    Легенды завтрашнего дня скачать торрент в хорошем качестве
    Легенды завтрашнего дня смотреть онлайн бесплатно в хорошем качестве


    Вы не можете начинать темы
    Вы не можете отвечать на сообщения
    Вы не можете редактировать свои сообщения
    Вы не можете удалять свои сообщения
    Вы не можете голосовать в опросах
    Вы не можете прикреплять файлы к сообщениям
    Вы можете скачивать файлы