Ссылка на приватное зеркало всего за 1$. Внимание количество ограничено!!!

iTunes

iTunes

iTunes

1

iTunes

iTunes

iTunes

iTunes

iTunes

30
pack

$ от Little Big

ВАЖНО

!!Акция!!

Alien_RageХит недели

RePack

Resident Evil 21

ИГРА 18+

pack

RePack

jed

!!Акция!!

Alien_Rage

RePack

fifa19

RePack

Assassins Creed: Odyssey

RePack

NEED FOR SPEED™ PAYBACK

4 сезон

9 сезон

Бесстыжие 9 сезон

Все сериалы

все сериалы на PB.wtf

RePack

FAR CRY 5
  

Квантовый скачок / Quantum Leap / Сезон: 1 / Серии: 1-9 из 9 (Джеймс Уитмор мл., Джо Наполитано, Майкл Цинберг) [1989, Фантастика, приключения, боевик, драма, детектив, BDRemux 1080p] [MVO] (СТС) pb.wtf

Квантовый скачок через торрент pb.wtf

Раздают: 1 [ 571 KB/s ]
Размер: 83.7 GB | Добавлен: 13 д. назад | Торрент скачан:4 раза
Скачать  

22-05-2020 19:21 Квантовый скачок Скачать торрент  

Квантовый скачок / Quantum Leap
Год выпуска: 1989
Страна: США
Жанр: Фантастика, приключения, боевик, драма, детектив
Продолжительность: ~00:48:00
Перевод: Профессиональный (многоголосый закадровый) | СТС
Реклама: Отсутствует
Режиссёр: Джеймс Уитмор мл., Джо Наполитано, Майкл Цинберг, Алан Дж. Леви, Майкл В. Уоткинс, Гилберт М. Шилтон, Кристофер Т. Уэлш, Кристофер Хиблер, Дэвид Хеммингс, Энди Кэдифф ... (всего 33)
В ролях: Скотт Бакула, Дин Стокуэлл, Дебора Прэтт, Деннис Уолфберг, В.К. Стрэттон, Кэролин Сеймур, Фран Беннетт, Брэд Силверман, Майкл Беллисарио, Адам Аффонсо, Adam Logan, Джон Д’Акино, Уилли Гарсон, Рени Коулмэн, Стивен Ли, Мег Фостер … (всего 966)
Описание: 1995 год. Разработав теорию о том, что человек может путешествовать во времени в пределах продолжительности собственной жизни, доктор Сэм Беккет на базе в пустынях Нью-Мехико возглавил сверхсекретный проект, названный «Квантовый Скачок» (Quantum Leap). Оказавшись перед необходимостью подтвердить свою теорию или потерять финансирование, доктор Беккет шагнул в квантовый ускоритель и... исчез. Проснувшись, он понимает, что попал в западню прошлого. Доктор Беккет принимает облики других людей, пытаясь исправить то, что когда-то было сделано не так. Единственной связью с реальным временем остается Эл - адмирал Альберт Калавичи, друг Сэма, работавший вместе с ним над проектом. В прошлом он появляется в виде голограммы, которую может видеть и слышать только доктор Беккет, животные, маленькие дети и сумасшедшие. Так начинается путешествие Сэмюэла Беккета во времени. Он проживает множество чужих жизней, пытаясь исправить ошибки прошлого. И всякий раз надеется, что следующий квантовый скачок вернет его обратно домой.
Качество: Blu-Ray Remux (1080p)
Контейнер: MKV
Видео: 1920x1080, 23.976 fps, MPEG-4 AVC, ~25000 kbps
Аудио Rus: AC3, 48.0 kHz, 2ch, 192 kbps | СТС
Аудио Eng: DTS-HD MA, 48.0 kHz, 2/0 (L,C), 2087 kbps | Оригинал
Субтитры softsub (SRT): Английские

rating

Видео от комрада EPSiLON

    01. Генезиз, 1 часть - 13 сентября 1956 года / Genesis: Part 1 - September 13, 1956
    02. Генезиз, 2 часть - 13 сентября 1956 года / Genesis: Part 2 - September 13, 1956
    03. Звёздное предначертание - 26 июня 1972 года / Star-Crossed - June 15, 1972
    04. Правая рука Бога - 24 октября 1974 года / The Right Hand of God - October 24, 1974
    05. Как Тесс была завоевана - 5 августа 1956 года / How the Tess Was Won - August 5, 1956
    06. Раздвоение личности - 8 ноября 1956 года / Double Identity - November 8, 1965
    07. Цвет истины - 8 августа 1955 года / The Color of Truth - August 8, 1955
    08. Парень-камикадзе - 6 июня 1961 / Camikazi Kid - June 6, 1961
    09. Сыграй это снова, Сеймур - 14 апреля 1953 / Play It Again, Seymour - April 14, 1953

Код:

Общее
Уникальный идентификатор                 : 10982250986934299534531750763497559033 (0x8431AC7475768184F1194A82CC893F9)
Полное имя                               : E:\Quantum.Leap.S01.1080p.BluRay.Remux.Rus.Eng-@EniaHD\Quantum.Leap.S01E05.1080p.BluRay.Remux.Rus.Eng-@EniaHD.mkv
Формат                                   : Matroska
Версия формата                           : Version 4
Размер файла                             : 9,16 Гбайт
Продолжительность                        : 48 м. 5 с.
Режим общего битрейта                    : Переменный
Общий поток                              : 27,3 Мбит/сек
Название фильма                          : Quantum.Leap.S01E05.1080p.BluRay.REMUX.AVC.DTS-HD.MA.2.0-EPSiLON-ParovozN@EniaHD
Дата кодирования                         : UTC 2020-05-21 00:27:23
Программа кодирования                    : mkvmerge v46.0.0 ('No Deeper Escape') 64-bit
Библиотека кодирования                   : libebml v1.3.10 + libmatroska v1.5.2

Видео
Идентификатор                            : 1
Формат                                   : AVC
Формат/Информация                        : Advanced Video Codec
Профиль формата                          : High@L4.1
Настройки формата                        : CABAC / 4 Ref Frames
Параметр CABAC формата                   : Да
Параметр RefFrames формата               : 4 кадра
Идентификатор кодека                     : V_MPEG4/ISO/AVC
Продолжительность                        : 48 м. 4 с.
Вид битрейта                             : Переменный
Битрейт                                  : 25,0 Мбит/сек
Максимальный битрейт                     : 35,0 Мбит/сек
Ширина                                   : 1920 пикселей
Высота                                   : 1080 пикселей
Соотношение сторон                       : 16:9
Режим частоты кадров                     : Постоянный
Частота кадров                           : 23,976 (24000/1001) кадра/сек
Стандарт вещания                         : NTSC
Цветовое пространство                    : YUV
Субдискретизация насыщенности            : 4:2:0
Битовая глубина                          : 8 бит
Тип развёртки                            : Прогрессивная
Бит/(Пиксели*Кадры)                      : 0.503
Размер потока                            : 8,39 Гбайт (92%)
Заголовок                                : MPEG-4 AVC Video / 20000 kbps / 1080p / 23.976 fps / 16:9 / High Profile 4.1
Язык                                     : English
Default                                  : Да
Forced                                   : Нет
Цветовой диапазон                        : Limited
Основные цвета                           : BT.709
Характеристики трансфера                 : BT.709
Коэффициенты матрицы                     : BT.709

Аудио #1
Идентификатор                            : 2
Формат                                   : AC-3
Формат/Информация                        : Audio Coding 3
Коммерческое название                    : Dolby Digital
Идентификатор кодека                     : A_AC3
Продолжительность                        : 48 м. 5 с.
Вид битрейта                             : Постоянный
Битрейт                                  : 192 Кбит/сек
Каналы                                   : 2 канала
Channel layout                           : L R
Частота                                  : 48,0 КГц
Частота кадров                           : 31,250 кадров/сек (1536 SPF)
Битовая глубина                          : 16 бит
Метод сжатия                             : С потерями
Размер потока                            : 66,1 Мбайт (1%)
Заголовок                                : MVO (CTC)
Язык                                     : Russian
ServiceKind/String                       : Complete Main
Default                                  : Да
Forced                                   : Нет

Аудио #2
Идентификатор                            : 3
Формат                                   : DTS XLL
Формат/Информация                        : Digital Theater Systems
Коммерческое название                    : DTS-HD Master Audio
Идентификатор кодека                     : A_DTS
Продолжительность                        : 48 м. 4 с.
Вид битрейта                             : Переменный
Битрейт                                  : 2087 Кбит/сек
Каналы                                   : 2 канала
Channel layout                           : L R
Частота                                  : 48,0 КГц
Частота кадров                           : 93,750 кадра/сек (512 SPF)
Битовая глубина                          : 24 бит
Метод сжатия                             : Без потерь
Размер потока                            : 718 Мбайт (8%)
Заголовок                                : DTS-HD Master Audio / 2.0 / 48 kHz / 2059 kbps / 24-bit
Язык                                     : English
Default                                  : Нет
Forced                                   : Нет

Текст
Идентификатор                            : 4
Формат                                   : UTF-8
Идентификатор кодека                     : S_TEXT/UTF8
Идентификатор кодека/Информация          : UTF-8 Plain Text
Продолжительность                        : 47 м. 22 с.
Битрейт                                  : 62 бит/сек
ElementCount                             : 580
Размер потока                            : 21,7 Кбайт (0%)
Язык                                     : English
Default                                  : Нет
Forced                                   : Нет

Меню
00:00:00.000                             : en:Chapter 1
00:01:55.365                             : en:Chapter 2
00:22:50.327                             : en:Chapter 3
00:47:32.808                             : en:Chapter 4


скриншот  скриншот  скриншот  
pb.wtf



Скачать Квантовый скачок через торрент https://funkyimg.com/i/356hD.jpg Скачать фильм Квантовый скачок через торрент бесплантно в хорошем качестве Описание: 1995 год. Разработав теорию о том, что человек может путешествовать во времени в пределах продолжительности собственной жизни, ... 10 10 1
Info! Золотая раздача, скачанное не засчитывается.
Торрент: Зарегистрирован [2020-05-22 19:21] · скачан: 4 раз
Статус: √ проверено
Размер: 83.7 GB
Как cкачать? Как скачать Квантовый скачок через торрент | qTorrent

28-11-2019 20:33  

Отключить всю рекламу на сайте

    Дорогой пользователь! Огромная просьба, поблагодарите релизера, оцените раздачу и оставьте свои комментарий, если Вы скачали Квантовый скачок через торрент бесплатно! Внесите свою лепту в развитие PiratBit!
    Комментировать посты могут только пользователи прошедшие не сложную регистрацию
    Показать сообщения:    

    Квантовый скачок через торрент
    Скачать бесплатно Квантовый скачок
    Квантовый скачок скачать торрент
    Квантовый скачок смотреть онлайн
    Cкачать фильм Квантовый скачок бесплатно
    Квантовый скачок скачать торрент в хорошем качестве
    Квантовый скачок смотреть онлайн бесплатно в хорошем качестве


    Вы не можете начинать темы
    Вы не можете отвечать на сообщения
    Вы не можете редактировать свои сообщения
    Вы не можете удалять свои сообщения
    Вы не можете голосовать в опросах
    Вы не можете прикреплять файлы к сообщениям
    Вы можете скачивать файлы