Ссылка на приватное зеркало всего за 1$. Внимание количество ограничено!!!

iTunes

iTunes

iTunes

1

iTunes

iTunes

iTunes

iTunes

iTunes

30
pack

$ от Little Big

ВАЖНО

!!Акция!!

Alien_RageХит недели

RePack

Resident Evil 21

ИГРА 18+

pack

RePack

jed

!!Акция!!

Alien_Rage

RePack

fifa19

RePack

Assassins Creed: Odyssey

RePack

NEED FOR SPEED™ PAYBACK

4 сезон

9 сезон

Бесстыжие 9 сезон

Все сериалы

все сериалы на PB.wtf

RePack

FAR CRY 5
  

Квантовый скачок / Quantum Leap / Сезон: 2 / Серии: 1-22 из 22 (Джеймс Уитмор мл., Джо Наполитано, Майкл Цинберг) [1989-1990, Фантастика, приключения, боевик, драма, детектив, BDRemux 1080p] [MVO] (СТС) pb.wtf

Квантовый скачок через торрент pb.wtf

Размер: 172.05 GB | Добавлен: 10 д. назад | Торрент скачан:0 раз
Скачать  

22-05-2020 19:23 Квантовый скачок Скачать торрент  

Квантовый скачок / Quantum Leap
Год выпуска: 1989-1990
Страна: США
Жанр: Фантастика, приключения, боевик, драма, детектив
Продолжительность: ~00:48:00
Перевод: Профессиональный (многоголосый закадровый) | СТС
Реклама: Отсутствует
Режиссёр: Джеймс Уитмор мл., Джо Наполитано, Майкл Цинберг, Алан Дж. Леви, Майкл В. Уоткинс, Гилберт М. Шилтон, Кристофер Т. Уэлш, Кристофер Хиблер, Дэвид Хеммингс, Энди Кэдифф ... (всего 33)
В ролях: Скотт Бакула, Дин Стокуэлл, Дебора Прэтт, Деннис Уолфберг, В.К. Стрэттон, Кэролин Сеймур, Фран Беннетт, Брэд Силверман, Майкл Беллисарио, Адам Аффонсо, Adam Logan, Джон Д’Акино, Уилли Гарсон, Рени Коулмэн, Стивен Ли, Мег Фостер … (всего 966)
Описание: 1995 год. Разработав теорию о том, что человек может путешествовать во времени в пределах продолжительности собственной жизни, доктор Сэм Беккет на базе в пустынях Нью-Мехико возглавил сверхсекретный проект, названный «Квантовый Скачок» (Quantum Leap). Оказавшись перед необходимостью подтвердить свою теорию или потерять финансирование, доктор Беккет шагнул в квантовый ускоритель и... исчез.

Проснувшись, он понимает, что попал в западню прошлого. Доктор Беккет принимает облики других людей, пытаясь исправить то, что когда-то было сделано не так. Единственной связью с реальным временем остается Эл - адмирал Альберт Калавичи, друг Сэма, работавший вместе с ним над проектом. В прошлом он появляется в виде голограммы, которую может видеть и слышать только доктор Беккет, животные, маленькие дети и сумасшедшие.

Так начинается путешествие Сэмюэла Беккета во времени. Он проживает множество чужих жизней, пытаясь исправить ошибки прошлого. И всякий раз надеется, что следующий квантовый скачок вернет его обратно домой.
Качество: Blu-Ray Remux
Контейнер: MKV
Видео: 1920x1080, 23.976 fps, MPEG-4 AVC, ~21000 kbps
Аудио Rus: AC3, 48.0 kHz, 2ch, 192 kbps | СТС
Аудио Eng: DTS-HD MA, 48.0 kHz, 2/0 (L,C), 2114 kbps | Оригинал
Субтитры softsub (SRT): Английские

rating

Видео от комрада EPSiLON

    01. Свадебный экспресс - 26 апреля 1960 / Honeymoon Express - April 27, 1960
    02. Ад на дискотеке - 1 апреля 1976 года / Disco Inferno - April 1, 1976
    03. Американизация Мачико - 4 августа 1953 года / The Americanization of Machiko - August 4, 1953
    04. Назови цену, Глория? - 16 октября 1961 / What Price Gloria? - October 16, 1961
    05. Слепая вера - 6 февраля 1964 / Blind Faith - February 6, 1964
    06. Доброе утро, Пеория - 9 сентября 1959 года / Good Morning, Peoria - September 9, 1959
    07. Не возжелай… - 2 февраля 1974 года / Thou Shalt Not... - February 2, 1974
    08. Джимми - 14 октября 1964 года / Jimmy - October 14, 1964
    09. Так помоги мне Бог - 29 июля 1957 года / So Help Me God - July 29, 1957
    10. Поймать падающую звезду - 21 мая 1979 года / Catch a Falling Star - May 21, 1979
    11. Портрет для Тройан - 21 мая 1979 года / A Portrait for Troian - February 7, 1971
    12.Зверский союз - 19 октября 1967 года / Animal Frat - October 19, 1967
    13. Другая мама - 30 сентября 1981 года / Another Mother - September 30, 1981
    14. Финальный матч - 6 ноября 1962 года / All-Americans - November 6, 1962
    15. Её обаяние - 26 сентября 1973 года / Her Charm - September 26, 1973
    16. Свобода - 22 ноября 1970 года / Freedom - November 22, 1970
    17. Спокойной ночи, дорогая - 9 ноября 1957 года / Good Night, Dear Heart - November 9, 1957
    18. Блюз из бильярдной - 4 сентября 1954 года / Pool Hall Blues - September 4, 1954
    19. Скачок без страховочной сетки - 18 ноября 1958 года / Leaping in Without a Net - November 18, 1958
    20. Может быть, малышка - 11 марта 1963 года / Maybe Baby - March 11, 1963
    21. Морская свадьба - 3 июня 1954 года / Sea Bride - June 3, 1954
    21. Пропавший без вести - 1 апреля 1969 года

Код:

Общее
Уникальный идентификатор                 : 166490534273551137936485739347370955852 (0x7D40E9193E84E0F5B1C531AB7DB9D44C)
Полное имя                               : Quantum.Leap.S02.1080p.BluRay.Remux.Rus.Eng-@EniaHD\Quantum.Leap.S02E10.1080p.BluRay.Remux.Rus.Eng-@EniaHD.mkv
Формат                                   : Matroska
Версия формата                           : Version 4
Размер файла                             : 7,47 Гбайт
Продолжительность                        : 47 м. 59 с.
Режим общего битрейта                    : Переменный
Общий поток                              : 22,3 Мбит/сек
Название фильма                          : Quantum.Leap.S02E10.1080p.BluRay.REMUX.AVC.DTS-HD.MA.2.0-EPSiLON-ParovozN@EniaHD
Дата кодирования                         : UTC 2020-05-21 03:01:34
Программа кодирования                    : mkvmerge v46.0.0 ('No Deeper Escape') 64-bit
Библиотека кодирования                   : libebml v1.3.10 + libmatroska v1.5.2

Видео
Идентификатор                            : 1
Формат                                   : AVC
Формат/Информация                        : Advanced Video Codec
Профиль формата                          : High@L4.1
Настройки формата                        : CABAC / 4 Ref Frames
Параметр CABAC формата                   : Да
Параметр RefFrames формата               : 4 кадра
Идентификатор кодека                     : V_MPEG4/ISO/AVC
Продолжительность                        : 47 м. 59 с.
Вид битрейта                             : Переменный
Битрейт                                  : 20,0 Мбит/сек
Максимальный битрейт                     : 35,0 Мбит/сек
Ширина                                   : 1920 пикселей
Высота                                   : 1080 пикселей
Соотношение сторон                       : 16:9
Режим частоты кадров                     : Постоянный
Частота кадров                           : 23,976 (24000/1001) кадра/сек
Стандарт вещания                         : NTSC
Цветовое пространство                    : YUV
Субдискретизация насыщенности            : 4:2:0
Битовая глубина                          : 8 бит
Тип развёртки                            : Прогрессивная
Бит/(Пиксели*Кадры)                      : 0.402
Размер потока                            : 6,70 Гбайт (90%)
Заголовок                                : MPEG-4 AVC Video / 20000 kbps / 1080p / 23.976 fps / 16:9 / High Profile 4.1
Язык                                     : English
Default                                  : Да
Forced                                   : Нет
Цветовой диапазон                        : Limited
Основные цвета                           : BT.709
Характеристики трансфера                 : BT.709
Коэффициенты матрицы                     : BT.709

Аудио #1
Идентификатор                            : 2
Формат                                   : AC-3
Формат/Информация                        : Audio Coding 3
Коммерческое название                    : Dolby Digital
Идентификатор кодека                     : A_AC3
Продолжительность                        : 47 м. 59 с.
Вид битрейта                             : Постоянный
Битрейт                                  : 192 Кбит/сек
Каналы                                   : 2 канала
Channel layout                           : L R
Частота                                  : 48,0 КГц
Частота кадров                           : 31,250 кадров/сек (1536 SPF)
Битовая глубина                          : 16 бит
Метод сжатия                             : С потерями
Размер потока                            : 65,9 Мбайт (1%)
Заголовок                                : MVO (CTC)
Язык                                     : Russian
ServiceKind/String                       : Complete Main
Default                                  : Да
Forced                                   : Нет

Аудио #2
Идентификатор                            : 3
Формат                                   : DTS XLL
Формат/Информация                        : Digital Theater Systems
Коммерческое название                    : DTS-HD Master Audio
Идентификатор кодека                     : A_DTS
Продолжительность                        : 47 м. 59 с.
Вид битрейта                             : Переменный
Битрейт                                  : 2077 Кбит/сек
Каналы                                   : 2 канала
Channel layout                           : L R
Частота                                  : 48,0 КГц
Частота кадров                           : 93,750 кадра/сек (512 SPF)
Битовая глубина                          : 24 бит
Метод сжатия                             : Без потерь
Размер потока                            : 713 Мбайт (9%)
Заголовок                                : DTS-HD Master Audio / 2.0 / 48 kHz / 2066 kbps / 24-bit
Язык                                     : English
Default                                  : Нет
Forced                                   : Нет

Текст
Идентификатор                            : 4
Формат                                   : UTF-8
Идентификатор кодека                     : S_TEXT/UTF8
Идентификатор кодека/Информация          : UTF-8 Plain Text
Продолжительность                        : 46 м. 55 с.
Битрейт                                  : 60 бит/сек
ElementCount                             : 629
Размер потока                            : 20,9 Кбайт (0%)
Язык                                     : English
Default                                  : Нет
Forced                                   : Нет

Меню
00:00:00.000                             : en:Chapter 1
00:02:51.213                             : en:Chapter 2
00:25:20.394                             : en:Chapter 3
00:47:05.197                             : en:Chapter 4


скриншот  скриншот  скриншот  

pb.wtf



Скачать Квантовый скачок через торрент https://funkyimg.com/i/356Rb.png Скачать фильм Квантовый скачок через торрент бесплантно в хорошем качестве Описание: 1995 год. Разработав теорию о том, что человек может путешествовать во времени в пределах продолжительности собственной жизни, ... 10 10 1
Info! Золотая раздача, скачанное не засчитывается.
Торрент: Зарегистрирован [2020-05-22 19:23] · скачан: 0 раз
Статус: √ проверено
Размер: 172.05 GB
Как cкачать? Как скачать Квантовый скачок через торрент | qTorrent

28-11-2019 20:33  

Отключить всю рекламу на сайте

    Дорогой пользователь! Огромная просьба, поблагодарите релизера, оцените раздачу и оставьте свои комментарий, если Вы скачали Квантовый скачок через торрент бесплатно! Внесите свою лепту в развитие PiratBit!
    Комментировать посты могут только пользователи прошедшие не сложную регистрацию
    Показать сообщения:    

    Квантовый скачок через торрент
    Скачать бесплатно Квантовый скачок
    Квантовый скачок скачать торрент
    Квантовый скачок смотреть онлайн
    Cкачать фильм Квантовый скачок бесплатно
    Квантовый скачок скачать торрент в хорошем качестве
    Квантовый скачок смотреть онлайн бесплатно в хорошем качестве


    Вы не можете начинать темы
    Вы не можете отвечать на сообщения
    Вы не можете редактировать свои сообщения
    Вы не можете удалять свои сообщения
    Вы не можете голосовать в опросах
    Вы не можете прикреплять файлы к сообщениям
    Вы можете скачивать файлы