Ссылка на приватное зеркало всего за 1$. Внимание количество ограничено!!!

iTunes

iTunes

iTunes

1

iTunes

iTunes

iTunes

iTunes

iTunes

30
pack

$ от Little Big

ВАЖНО

!!Акция!!

Alien_RageХит недели

RePack

Resident Evil 21

ИГРА 18+

pack

RePack

jed

!!Акция!!

Alien_Rage

RePack

fifa19

RePack

Assassins Creed: Odyssey

RePack

NEED FOR SPEED™ PAYBACK

4 сезон

9 сезон

Бесстыжие 9 сезон

Все сериалы

все сериалы на PB.wtf

RePack

FAR CRY 5
  

Нормальные люди / Normal People / Сезон: 1 / Серии: 1- из 12 (Леонард Абрахамсон, Хетти Макдональд) [2020, Драма, мелодрама, WEB-DL 1080p] MVO [Кириллица] pb.wtf

Нормальные люди через торрент pb.wtf

Размер: 875 MB | Добавлен: 13 д. назад | Торрент скачан:4 раза
Скачать  

23-05-2020 01:19 Нормальные люди Скачать торрент  

Нормальные люди | Normal People
Год выпуска: 2020
Страна: Ирландия
Выпущено: Element Pictures, Hulu
Жанр: Драма, мелодрама
Продолжительность: ~ 00:30:00
Перевод: Профессиональный (многоголосый) | Кириллица
Субтитры: Английские (SDH), Spanish

Режиссер: Леонард Абрахамсон, Хетти Макдональд

rating

В ролях: Дэйзи Эдгар-Джонс, Пол Мескал, Десмонд Иствуд, Эшлин МакГакин, Сара Грин, Фрэнк Блэйк, Индия Маллен, Элиот Солт, Инна Хардвик, Шон Дойлс

Описание: Старшеклассник Коннел – один из самых популярных парней в школе, звезда местной футбольной команды, Марианна – тихая и застенчивая ученица. Подростки из разных социальных групп неожиданно друг для друга сходятся, но из-за ошибки, совершённой Коннелом накануне выпускного, их ждёт тяжёлый разрыв. Позднее судьба преподносит им ещё один шанс, а затем ещё один – смогут ли они быть счастливы вместе?

Качество: WEB-DL 1080p
Формат: MKV

Видео: 1920x1080 at 25 fps, MPEG-4 AVC, ~3615 kbps avg
Аудио#1: 48 kHz, AC3, 2/0 (L,R) ch, ~192 kbps avg | Кириллица
Аудио#2: 48 kHz, E-AC3, 3/2 (L,C,R,l,r) + LFE ch, ~256 kbps avg | English
скриншот  скриншот  скриншот  скриншот  скриншот  

Общее
Уникальный идентификатор : 256400214604379491280972949763062755541 (0xC0E4E296444A61477FACE09AE0E7F0D5)
Полное имя : C:\Users\root\Documents\Normal.People.S01.1080p.HULU.WEBRip.DDP5.1.x264-NTb[rartv]\Normal.People.S01.1080p.HULU.WEB-DL.DDP5.1.x264-NTb_Kyle\Normal.People.S01E01.1080p.HULU.WEB-DL.DDP5.1.H.264-NTb_RGzsRutracker.mkv
Формат : Matroska
Версия формата : Version 4
Размер файла : 875 Мбайт
Продолжительность : 30 м. 5 с.
Общий поток : 3615 Кбит/сек
Дата кодирования : UTC 2020-05-22 21:28:38
Программа кодирования : mkvmerge v46.0.0 ('No Deeper Escape') 64-bit
Библиотека кодирования : libebml v1.3.10 + libmatroska v1.5.2

Видео
Идентификатор : 1
Формат : AVC
Формат/Информация : Advanced Video Codec
Профиль формата : High@L4
Настройки формата : CABAC / 4 Ref Frames
Параметр CABAC формата : Да
Параметр RefFrames формата : 4 кадра
Идентификатор кодека : V_MPEG4/ISO/AVC
Продолжительность : 30 м. 5 с.
Битрейт : 3615 Кбит/сек
Ширина : 1920 пикселей
Высота : 1080 пикселей
Соотношение сторон : 16:9
Режим частоты кадров : Постоянный
Частота кадров : 25,000 кадров/сек
Цветовое пространство : YUV
Субдискретизация насыщенности : 4:2:0
Битовая глубина : 8 бит
Тип развёртки : Прогрессивная
Бит/(Пиксели*Кадры) : 0.070
Размер потока : 778 Мбайт (89%)
Язык : English
Default : Да
Forced : Нет

Аудио #1
Идентификатор : 2
Формат : AC-3
Формат/Информация : Audio Coding 3
Коммерческое название : Dolby Digital
Идентификатор кодека : A_AC3
Продолжительность : 30 м. 5 с.
Вид битрейта : Постоянный
Битрейт : 192 Кбит/сек
Каналы : 2 канала
ChannelLayout : L R
Частота : 48,0 КГц
Частота кадров : 31,250 кадров/сек (1536 SPF)
Метод сжатия : С потерями
Размер потока : 41,3 Мбайт (5%)
Язык : Russian
ServiceKind/String : Complete Main
Default : Да
Forced : Нет

Аудио #2
Идентификатор : 3
Формат : E-AC-3
Формат/Информация : Enhanced AC-3
Коммерческое название : Dolby Digital Plus
Идентификатор кодека : A_EAC3
Продолжительность : 30 м. 5 с.
Вид битрейта : Постоянный
Битрейт : 256 Кбит/сек
Каналы : 6 каналов
ChannelLayout : L R C LFE Ls Rs
Частота : 48,0 КГц
Частота кадров : 31,250 кадров/сек (1536 SPF)
Метод сжатия : С потерями
Размер потока : 55,1 Мбайт (6%)
Язык : English
ServiceKind/String : Complete Main
Default : Нет
Forced : Нет

Текст #1
Идентификатор : 4
Формат : UTF-8
Идентификатор кодека : S_TEXT/UTF8
Идентификатор кодека/Информация : UTF-8 Plain Text
Продолжительность : 29 м. 49 с.
Битрейт : 63 бит/сек
ElementCount : 442
Размер потока : 13,9 Кбайт (0%)
Язык : English
Default : Нет
Forced : Нет

Текст #2
Идентификатор : 5
Формат : UTF-8
Идентификатор кодека : S_TEXT/UTF8
Идентификатор кодека/Информация : UTF-8 Plain Text
Продолжительность : 30 м. 2 с.
Битрейт : 66 бит/сек
ElementCount : 465
Размер потока : 14,6 Кбайт (0%)
Язык : Spanish
Default : Нет
Forced : Нет

Когда раздача ведётся путём добавления новых серий, при каждом добавлении создётся новый торрент. Чтобы начать докачку новой серии, пользователям необходимо сделать следующее:
(1) остановить скачивание,
(2) удалить старый торрент у себя из клиента (старые серии удалять не надо),
(3) скачать новый торрент и запустить его у себя в клиенте вместо старого, при этом указать клиенту путь в старую папку, куда и должно происходить скачивание новых серий.
Ваш клиент при этом должен произвести хеширование (проверку) старой папки (если не производит сам - помогите ему сделать это), и будет докачивать только те серии, которых у вас ещё нет. Старые серии при этом не удаляются, а продолжают раздаваться!
Eсли вы уже удалили старые серии, то предотвратить повторную закачку старых серий можно, отжав галочку в соответсвующих местах при запуске нового торрента. По возможности, желательно не удалять старые серии как можно дольше, чтобы релизер не столько продолжал раздавать старые серии, а смог сконцентрироваться на новых.
pb.wtf



Скачать Нормальные люди через торрент https://i112.fastpic.ru/big/2020/0522/e0/4a9515cd59016bf5d1ddf697bf9a3fe0.jpg Скачать фильм Нормальные люди через торрент бесплантно в хорошем качестве Описание: Старшеклассник Коннел – один из самых популярных парней в школе, звезда местной футбольной команды, Марианна – тихая и ... 10 10 2
Торрент: Зарегистрирован [2020-05-23 01:19] · скачан: 4 раз
Статус: √ проверено
Размер: 875 MB
Как cкачать? Как скачать Нормальные люди через торрент | qTorrent

% Раздел Тема Автор DL S | L
Зарубежные сериалы [ 4.78 GB ] Нормальные люди / Normal People / Сезон: 1 / Серии: 1-12 из 12 [2020 WEB-DLRip] MVO [TVShows] bober100 Скачать
2 | 0
Зарубежные сериалы [ 10.08 GB ] Нормальные люди / Normal People / Сезон: 1 / Серии: 1-12 из 12 [2020 WEBRip 1080p] MVO [TVShows] bober100 Скачать
3 | 0

28-11-2019 20:33  

Отключить всю рекламу на сайте

    Дорогой пользователь! Огромная просьба, поблагодарите релизера, оцените раздачу и оставьте свои комментарий, если Вы скачали Нормальные люди через торрент бесплатно! Внесите свою лепту в развитие PiratBit!
    Комментировать посты могут только пользователи прошедшие не сложную регистрацию
    Показать сообщения:    

    Нормальные люди через торрент
    Скачать бесплатно Нормальные люди
    Нормальные люди скачать торрент
    Нормальные люди смотреть онлайн
    Cкачать фильм Нормальные люди бесплатно
    Нормальные люди скачать торрент в хорошем качестве
    Нормальные люди смотреть онлайн бесплатно в хорошем качестве


    Вы не можете начинать темы
    Вы не можете отвечать на сообщения
    Вы не можете редактировать свои сообщения
    Вы не можете удалять свои сообщения
    Вы не можете голосовать в опросах
    Вы не можете прикреплять файлы к сообщениям
    Вы можете скачивать файлы