Ссылка на приватное зеркало всего за 1$. Внимание количество ограничено!!!

iTunes

iTunes

iTunes

1

iTunes

iTunes

iTunes

iTunes

iTunes

30
pack

Новость дня

ВАЖНО

!!Акция!!

Alien_RageХит недели

RePack

Resident Evil 21

ИГРА 18+

pack

RePack

jed

!!Акция!!

Alien_Rage

RePack

fifa19

RePack

Assassins Creed: Odyssey

RePack

NEED FOR SPEED™ PAYBACK

4 сезон

9 сезон

Бесстыжие 9 сезон

Все сериалы

все сериалы на PB.wtf

RePack

FAR CRY 5
  

Сотня / The 100 / Сезон: 7 / Серии: 1- из 16 (Дин Уайт, Джон Беринг, Милан Чейлов) [2020, фантастика, драма, детектив, WEB-DLRip] MVO [Jaskier] pb.wtf

Сотня через торрент pb.wtf

Раздают: 5 [ 0 KB/s ]
Размер: 505 MB | Добавлен: 3 д. назад | Торрент скачан:7 раз
Скачать  

23-05-2020 01:55 Сотня Скачать торрент  

Сотня | The 100
Название: Сотня
Оригинальное название: The 100
Год выпуска: 2020
Страна: США
Студия: Bonanza Productions, Alloy Entertainment, Warner Bros. Television
Жанр: фантастика, драма, детектив
Продолжительность: ~ 00:43:00 серия
Перевод: Профессиональный (многоголосый) | студия Jaskier
Субтитры: отсутствуют

Режиссер: Дин Уайт, Джон Беринг, Милан Чейлов

rating

В ролях: Элиза Тейлор, Пейдж Турко, Томас МакДонелл, Боб Морли, Мари Авгеропулос, Девон Бостик, Линдси Морган, Рики Уиттл, Кристофер Ларкин, Исайя Вашингтон, Генри Иэн Кьюсик, Рэймонд Дж. Бэрри, Ричард Хэрмон, Джозеф Гатт, Ив Харлоу, Дичен Лакмэн, Адина Портер, Кинэн Трэйси, Джонни Витуорт, Алисия Дебнем Кери, Кендалл Кросс, Алекс Паунович, Сарван Бадеша, Джарод Джозеф и др.

Описание: События в сериале начинают разворачиваться по прошествии девяносто семи лет после того, как всю цивилизацию уничтожила страшная атомная война.Высоко в космосе на орбите Земли летает большой космический корабль, где находятся те, кто выжил после страшной катастрофы. Именно с этого последнего пристанища людей на Землю отправляют космический челнок, на котором находятся сто малолетних преступников....

Качество: WEB-DLRip
Формат: XviD | Avi

Видео: ~ 1400 kbps, 720x400, 23.976 fps
Аудио#1 Rus: mp3, 48 KHz, 2 ch, 128 kbps
Аудио#2 Eng: mp3, 48 KHz, 2 ch, 128 kbps
скриншот  скриншот  скриншот  

Общее
Полное имя : C:\The 100. Season 7 (WEB-DLRip l 400p l Jaskier)\The.100.S07E01.WEB-DLRip.Rus.Eng.Jaskier.avi
Формат : AVI
Формат/Информация : Audio Video Interleave
Размер файла : 505 Мбайт
Продолжительность : 42 м. 18 с.
Общий поток : 1670 Кбит/сек
Программа кодирования : VirtualDubMod 1.5.10.3 | www.virtualdub-fr.org || (build 2550/release)
Библиотека кодирования : VirtualDubMod build 2550/release

Видео
Идентификатор : 0
Формат : MPEG-4 Visual
Профиль формата : Advanced Simple@L5
Настройки формата : BVOP1 / Custom Matrix
Параметр BVOP формата : 1
Параметр QPel формата : Нет
Параметр GMC формата : Без точки перехода
Параметр матрицы формата : Выборочная
Идентификатор кодека : XVID
Идентификатор кодека/Подсказка : XviD
Продолжительность : 42 м. 18 с.
Битрейт : 1337 Кбит/сек
Ширина : 720 пикселей
Высота : 400 пикселей
Соотношение сторон : 16:9
Частота кадров : 23,976 (24000/1001) кадра/сек
Цветовое пространство : YUV
Субдискретизация насыщенности : 4:2:0
Битовая глубина : 8 бит
Тип развёртки : Прогрессивная
Метод сжатия : С потерями
Бит/(Пиксели*Кадры) : 0.194
Размер потока : 405 Мбайт (80%)
Библиотека кодирования : XviD 73

Аудио #1
Идентификатор : 1
Формат : MPEG Audio
Версия формата : Version 1
Профиль формата : Layer 3
Настройки формата : Joint stereo / MS Stereo
Идентификатор кодека : 55
Идентификатор кодека/Подсказка : MP3
Продолжительность : 42 м. 18 с.
Вид битрейта : Постоянный
Битрейт : 128 Кбит/сек
Каналы : 2 канала
Частота : 48,0 КГц
Метод сжатия : С потерями
Размер потока : 38,7 Мбайт (8%)
Выравнивание : Соединение по промежуткам

Аудио #2
Идентификатор : 2
Формат : MPEG Audio
Версия формата : Version 1
Профиль формата : Layer 3
Настройки формата : Joint stereo / MS Stereo
Идентификатор кодека : 55
Идентификатор кодека/Подсказка : MP3
Продолжительность : 42 м. 18 с.
Вид битрейта : Постоянный
Битрейт : 128 Кбит/сек
Каналы : 2 канала
Частота : 48,0 КГц
Метод сжатия : С потерями
Размер потока : 38,7 Мбайт (8%)
Выравнивание : Соединение по промежуткам

Когда раздача ведётся путём добавления новых серий, при каждом добавлении создётся новый торрент. Чтобы начать докачку новой серии, пользователям необходимо сделать следующее:
(1) остановить скачивание,
(2) удалить старый торрент у себя из клиента (старые серии удалять не надо),
(3) скачать новый торрент и запустить его у себя в клиенте вместо старого, при этом указать клиенту путь в старую папку, куда и должно происходить скачивание новых серий.
Ваш клиент при этом должен произвести хеширование (проверку) старой папки (если не производит сам - помогите ему сделать это), и будет докачивать только те серии, которых у вас ещё нет. Старые серии при этом не удаляются, а продолжают раздаваться!
Eсли вы уже удалили старые серии, то предотвратить повторную закачку старых серий можно, отжав галочку в соответсвующих местах при запуске нового торрента. По возможности, желательно не удалять старые серии как можно дольше, чтобы релизёр не столько продолжал раздавать старые серии, а смог сконцентрироваться на новых.
pb.wtf



Скачать Сотня через торрент https://b.radikal.ru/b41/2005/05/c7844b5ef0c5.png Скачать фильм Сотня через торрент бесплантно в хорошем качестве Описание: События в сериале начинают разворачиваться по прошествии девяносто семи лет после того, как всю цивилизацию уничтожила страшная ... 10 10 2
Торрент: Зарегистрирован [2020-05-23 01:55] · скачан: 7 раз
Статус: √ проверено
Размер: 505 MB
Как cкачать? Как скачать Сотня через торрент | qTorrent

% Раздел Тема Автор DL S | L
Зарубежные сериалы [ 3.07 GB ] Сотня / The 100 / Сезон: 7 / Серии: 1- из 16 [2020 WEB-DL 1080p] MVO [LostFilm] bober100 Скачать
10 | 0
Зарубежные сериалы [ 3.07 GB ] Сотня / The 100 / Сезон: 7 / Серии: 1- из 16 [2020 WEB-DL 1080p] MVO [AlexFilm] bober100 Скачать
14 | 0
Зарубежные сериалы [ 2 GB ] Сотня / The 100 / Сезон: 7 / Серии: 1- из 16 [2020 WEB-DL 720p] 3xMVO [AlexFilm LostFilm NewStudio] bober100 Скачать
3 | 0
Зарубежные сериалы [ 605 MB ] Сотня / The 100 / Сезон: 7 / Серии: 1- из 16 [2020 WEB-DLRip] MVO [LostFilm] bober100 Скачать
20 | 0
Зарубежные сериалы [ 605 MB ] Сотня / The 100 / Сезон: 7 / Серии: 1- из 16 [2020 WEB-DLRip] MVO [AlexFilm] bober100 Скачать
2 | 0
Зарубежные сериалы [ 2.99 GB ] Сотня / The 100 / Сезон: 7 / Серии: 1- из 16 [2020 WEB-DL 1080p] MVO [Jaskier] bober100 Скачать
7 | 0
Зарубежные сериалы [ 1.69 GB ] Сотня / The 100 / Сезон: 7 / Серии: 1- из 16 [2020 WEB-DL 720p] MVO [Jaskier] bober100 Скачать
6 | 0

28-11-2019 20:33  

Отключить всю рекламу на сайте

    Дорогой пользователь! Огромная просьба, поблагодарите релизера, оцените раздачу и оставьте свои комментарий, если Вы скачали Сотня через торрент бесплатно! Внесите свою лепту в развитие PiratBit!
    Комментировать посты могут только пользователи прошедшие не сложную регистрацию
    Показать сообщения:    

    Сотня через торрент
    Скачать бесплатно Сотня
    Сотня скачать торрент
    Сотня смотреть онлайн
    Cкачать фильм Сотня бесплатно
    Сотня скачать торрент в хорошем качестве
    Сотня смотреть онлайн бесплатно в хорошем качестве


    Вы не можете начинать темы
    Вы не можете отвечать на сообщения
    Вы не можете редактировать свои сообщения
    Вы не можете удалять свои сообщения
    Вы не можете голосовать в опросах
    Вы не можете прикреплять файлы к сообщениям
    Вы можете скачивать файлы