Ссылка на приватное зеркало всего за 1$. Внимание количество ограничено!!!

iTunes

iTunes

iTunes

1

iTunes

iTunes

iTunes

iTunes

iTunes

30
pack

Новость дня

ВАЖНО

!!Акция!!

Alien_RageХит недели

RePack

Resident Evil 21

ИГРА 18+

pack

RePack

jed

!!Акция!!

Alien_Rage

RePack

fifa19

RePack

Assassins Creed: Odyssey

RePack

NEED FOR SPEED™ PAYBACK

4 сезон

9 сезон

Бесстыжие 9 сезон

Все сериалы

все сериалы на PB.wtf

RePack

FAR CRY 5
  

Сотня / The 100 / Сезон: 7 / Серии: 1- из 16 (Дин Уайт, Джон Беринг, Милан Чейлов) [2020, фантастика, драма, детектив, WEB-DL 720p] MVO [Jaskier] pb.wtf

Сотня через торрент pb.wtf

Раздают: 4 [ 155 KB/s ]
Размер: 1.69 GB | Добавлен: 3 д. назад | Торрент скачан:10 раз
Скачать  

23-05-2020 01:55 Сотня Скачать торрент  

Сотня | The 100
Название: Сотня
Оригинальное название: The 100
Год выпуска: 2020
Страна: США
Студия: Bonanza Productions, Alloy Entertainment, Warner Bros. Television
Жанр: фантастика, драма, детектив
Продолжительность: ~ 00:43:00 серия
Перевод: Профессиональный (многоголосый) | студия Jaskier
Субтитры: | английские |

Режиссер: Дин Уайт, Джон Беринг, Милан Чейлов

rating

В ролях: Элиза Тейлор, Пейдж Турко, Томас МакДонелл, Боб Морли, Мари Авгеропулос, Девон Бостик, Линдси Морган, Рики Уиттл, Кристофер Ларкин, Исайя Вашингтон, Генри Иэн Кьюсик, Рэймонд Дж. Бэрри, Ричард Хэрмон, Джозеф Гатт, Ив Харлоу, Дичен Лакмэн, Адина Портер, Кинэн Трэйси, Джонни Витуорт, Алисия Дебнем Кери, Кендалл Кросс, Алекс Паунович, Сарван Бадеша, Джарод Джозеф и др.

Описание: События в сериале начинают разворачиваться по прошествии девяносто семи лет после того, как всю цивилизацию уничтожила страшная атомная война.Высоко в космосе на орбите Земли летает большой космический корабль, где находятся те, кто выжил после страшной катастрофы. Именно с этого последнего пристанища людей на Землю отправляют космический челнок, на котором находятся сто малолетних преступников....

Качество: WEB-DL 720p
Формат: | MKV | H.264 |

Видео: ~ 4900 kbps | 1280x720 (16:9), 23,976 fps
Аудио#1 Rus: AC3 | 48.0 KHz | 6 ch | 384 kbps
Аудио#2 Eng: AC3 | 48.0 KHz | 6 ch | 384 kbps
скриншот  скриншот  скриншот  

Общее
Уникальный идентификатор : 221494725918207252134904168742161315992 (0xA6A2551FD50FA668AB22468F58617898)
Полное имя : C:\The 100. Season 7 (WEB-DL l 720p l Jaskier)\The.100.S07E01.720p.WEB-DL.DD5.1.H.264-Jaskier.mkv
Формат : Matroska
Версия формата : Version 2
Размер файла : 1,69 Гбайт
Продолжительность : 42 м. 18 с.
Общий поток : 5734 Кбит/сек
Дата кодирования : UTC 2020-05-22 23:04:08
Программа кодирования : mkvmerge v7.8.0 ('River Man') 32bit built on Apr 3 2015 12:11:22
Библиотека кодирования : libebml v1.3.1 + libmatroska v1.4.2

Видео
Идентификатор : 1
Формат : AVC
Формат/Информация : Advanced Video Codec
Профиль формата : High@L3.1
Настройки формата : CABAC / 4 Ref Frames
Параметр CABAC формата : Да
Параметр RefFrames формата : 4 кадра
Идентификатор кодека : V_MPEG4/ISO/AVC
Продолжительность : 42 м. 18 с.
Вид битрейта : Постоянный
Битрейт : 4852 Кбит/сек
Номинальный битрейт : 6000 Кбит/сек
Ширина : 1280 пикселей
Высота : 720 пикселей
Соотношение сторон : 16:9
Режим частоты кадров : Постоянный
Частота кадров : 23,976 (24000/1001) кадра/сек
Цветовое пространство : YUV
Субдискретизация насыщенности : 4:2:0
Битовая глубина : 8 бит
Тип развёртки : Прогрессивная
Бит/(Пиксели*Кадры) : 0.220
Размер потока : 1,43 Гбайт (85%)
Язык : English
Default : Да
Forced : Нет
Цветовой диапазон : Limited
Основные цвета : BT.709
Характеристики трансфера : BT.709
Коэффициенты матрицы : BT.709

Аудио #1
Идентификатор : 2
Формат : AC-3
Формат/Информация : Audio Coding 3
Коммерческое название : Dolby Digital
Идентификатор кодека : A_AC3
Продолжительность : 42 м. 18 с.
Вид битрейта : Постоянный
Битрейт : 384 Кбит/сек
Каналы : 6 каналов
ChannelLayout : L R C LFE Ls Rs
Частота : 48,0 КГц
Частота кадров : 31,250 кадров/сек (1536 SPF)
Битовая глубина : 16 бит
Метод сжатия : С потерями
Размер потока : 116 Мбайт (7%)
Заголовок : Jaskier
Язык : Russian
ServiceKind/String : Complete Main
Default : Да
Forced : Нет

Аудио #2
Идентификатор : 3
Формат : AC-3
Формат/Информация : Audio Coding 3
Коммерческое название : Dolby Digital
Идентификатор кодека : A_AC3
Продолжительность : 42 м. 18 с.
Вид битрейта : Постоянный
Битрейт : 384 Кбит/сек
Каналы : 6 каналов
ChannelLayout : L R C LFE Ls Rs
Частота : 48,0 КГц
Частота кадров : 31,250 кадров/сек (1536 SPF)
Битовая глубина : 16 бит
Метод сжатия : С потерями
Размер потока : 116 Мбайт (7%)
Язык : English
ServiceKind/String : Complete Main
Default : Нет
Forced : Нет

Текст
Идентификатор : 4
Формат : UTF-8
Идентификатор кодека : S_TEXT/UTF8
Идентификатор кодека/Информация : UTF-8 Plain Text
Язык : English
Default : Нет
Forced : Нет

Когда раздача ведётся путём добавления новых серий, при каждом добавлении создётся новый торрент. Чтобы начать докачку новой серии, пользователям необходимо сделать следующее:
(1) остановить скачивание,
(2) удалить старый торрент у себя из клиента (старые серии удалять не надо),
(3) скачать новый торрент и запустить его у себя в клиенте вместо старого, при этом указать клиенту путь в старую папку, куда и должно происходить скачивание новых серий.
Ваш клиент при этом должен произвести хеширование (проверку) старой папки (если не производит сам - помогите ему сделать это), и будет докачивать только те серии, которых у вас ещё нет. Старые серии при этом не удаляются, а продолжают раздаваться!
Eсли вы уже удалили старые серии, то предотвратить повторную закачку старых серий можно, отжав галочку в соответсвующих местах при запуске нового торрента. По возможности, желательно не удалять старые серии как можно дольше, чтобы релизёр не столько продолжал раздавать старые серии, а смог сконцентрироваться на новых.
pb.wtf



Скачать Сотня через торрент https://b.radikal.ru/b41/2005/05/c7844b5ef0c5.png Скачать фильм Сотня через торрент бесплантно в хорошем качестве Описание: События в сериале начинают разворачиваться по прошествии девяносто семи лет после того, как всю цивилизацию уничтожила страшная ... 10 10 2
Торрент: Зарегистрирован [2020-05-23 01:55] · скачан: 10 раз
Статус: √ проверено
Размер: 1.69 GB
Как cкачать? Как скачать Сотня через торрент | qTorrent

% Раздел Тема Автор DL S | L
Зарубежные сериалы [ 3.07 GB ] Сотня / The 100 / Сезон: 7 / Серии: 1- из 16 [2020 WEB-DL 1080p] MVO [LostFilm] bober100 Скачать
9 | 0
Зарубежные сериалы [ 3.07 GB ] Сотня / The 100 / Сезон: 7 / Серии: 1- из 16 [2020 WEB-DL 1080p] MVO [AlexFilm] bober100 Скачать
15 | 0
Зарубежные сериалы [ 2 GB ] Сотня / The 100 / Сезон: 7 / Серии: 1- из 16 [2020 WEB-DL 720p] 3xMVO [AlexFilm LostFilm NewStudio] bober100 Скачать
4 | 0
Зарубежные сериалы [ 605 MB ] Сотня / The 100 / Сезон: 7 / Серии: 1- из 16 [2020 WEB-DLRip] MVO [LostFilm] bober100 Скачать
21 | 0
Зарубежные сериалы [ 605 MB ] Сотня / The 100 / Сезон: 7 / Серии: 1- из 16 [2020 WEB-DLRip] MVO [AlexFilm] bober100 Скачать
2 | 0
Зарубежные сериалы [ 2.99 GB ] Сотня / The 100 / Сезон: 7 / Серии: 1- из 16 [2020 WEB-DL 1080p] MVO [Jaskier] bober100 Скачать
6 | 0
Зарубежные сериалы [ 505 MB ] Сотня / The 100 / Сезон: 7 / Серии: 1- из 16 [2020 WEB-DLRip] MVO [Jaskier] bober100 Скачать
6 | 0

28-11-2019 20:33  

Отключить всю рекламу на сайте

    Дорогой пользователь! Огромная просьба, поблагодарите релизера, оцените раздачу и оставьте свои комментарий, если Вы скачали Сотня через торрент бесплатно! Внесите свою лепту в развитие PiratBit!
    Комментировать посты могут только пользователи прошедшие не сложную регистрацию
    Показать сообщения:    

    Сотня через торрент
    Скачать бесплатно Сотня
    Сотня скачать торрент
    Сотня смотреть онлайн
    Cкачать фильм Сотня бесплатно
    Сотня скачать торрент в хорошем качестве
    Сотня смотреть онлайн бесплатно в хорошем качестве


    Вы не можете начинать темы
    Вы не можете отвечать на сообщения
    Вы не можете редактировать свои сообщения
    Вы не можете удалять свои сообщения
    Вы не можете голосовать в опросах
    Вы не можете прикреплять файлы к сообщениям
    Вы можете скачивать файлы