Ссылка на приватное зеркало всего за 1$. Внимание количество ограничено!!!

iTunes

iTunes

iTunes

1

iTunes

iTunes

iTunes

iTunes

iTunes

30
pack

$ от Little Big

ВАЖНО

!!Акция!!

Alien_RageХит недели

RePack

Resident Evil 21

ИГРА 18+

pack

RePack

jed

!!Акция!!

Alien_Rage

RePack

fifa19

RePack

Assassins Creed: Odyssey

RePack

NEED FOR SPEED™ PAYBACK

4 сезон

9 сезон

Бесстыжие 9 сезон

Все сериалы

все сериалы на PB.wtf

RePack

FAR CRY 5
  

Сквозь снег / Snowpiercer / Сезон: 1 / Серии: 1- из 10 (Джеймс Хоуз, Сэм Миллер, Хелен Шейвер) [2020, Фантастика, боевик, триллер, драма, WEB-DL 1080p] 3xMVO pb.wtf

Сквозь снег через торрент pb.wtf

Размер: 3.84 GB | Добавлен: 12 д. назад | Торрент скачан:28 раз
Скачать  

23-05-2020 02:18 Сквозь снег Скачать торрент  

Сквозь снег | Snowpiercer
«***»
Год выпуска: 2020
Страна: США
Студия: CJ Entertainment, Studio T, Tomorrow Studios
Жанр: Фантастика, боевик, триллер, драма
Продолжительность: ~ 00:53:00
Перевод:
Профессиональный (многоголосый) | LostFilm
Профессиональный (многоголосый) | NewStudio
Профессиональный (многоголосый) | HDRezka Studio
Субтитры: Русские (Full), английские (SDH)

Режиссер: Джеймс Хоуз, Сэм Миллер, Хелен Шейвер

rating

В ролях: Дженнифер Коннелли, Давид Диггс, Мики Самнер, Шейла Ванд, Лена Холл, Элисон Райт, Иддо Голдберг, Аарон Гленнэйн, Карин Коновал, Анналиса Бассо и др.

Описание: Мир претерпел техногенную катастрофу, которая привела к новому ледниковому периоду. По трансевразийской магистрали мчится гигантский поезд, заполненный выжившими. В поезде царит строгая классовая иерархия: от правящей элиты в первых вагонах до угнетённых в хвосте.

Качество: WEB-DL 1080p
Формат: MKV

Видео: AVC, 1920x1080 (16:9), ~ 8650 Kbps, 23.976 fps
Аудио 1: AC3, 48 kHz, 6 ch, 640 kbps - Rus (LostFilm)
Аудио 2: AC3, 48 kHz, 6 ch, 384 kbps - Rus (NewStudio)
Аудио 3: AC3, 48 kHz, 2 ch, 192 kbps - Rus (HDRezka Studio)
Аудио 4: AC3, 48 kHz, 6 ch, 640 kbps - Eng
скриншот  скриншот  скриншот  скриншот  

Общее
Уникальный идентификатор : 213174371631247844531366882949851137000 (0xA05FE3FC662E5B81BF5B201476F243E8)
Полное имя : C:\Сквозь снег. Сериал. 2020. EniaHD (WEB-DL 1080p)\Snowpiercer.s01e01. Вначале изменилась погода.mkv
Формат : Matroska
Версия формата : Version 2
Размер файла : 3,84 Гбайт
Продолжительность : 51 м. 20 с.
Общий поток : 10,7 Мбит/сек
Название фильма : First, the Weather Changed
Дата кодирования : UTC 2020-05-22 18:25:57
Программа кодирования : mkvmerge v6.9.1 ('Blue Panther') 32bit built on Apr 18 2014 18:15:44
Библиотека кодирования : libebml v1.3.0 + libmatroska v1.4.1

Видео
Идентификатор : 1
Формат : AVC
Формат/Информация : Advanced Video Codec
Профиль формата : High@L4
Настройки формата : CABAC / 4 Ref Frames
Параметр CABAC формата : Да
Параметр RefFrames формата : 4 кадра
Идентификатор кодека : V_MPEG4/ISO/AVC
Продолжительность : 51 м. 20 с.
Вид битрейта : Постоянный
Битрейт : 8652 Кбит/сек
Номинальный битрейт : 10000 Кбит/сек
Ширина : 1920 пикселей
Высота : 1080 пикселей
Соотношение сторон : 16:9
Режим частоты кадров : Постоянный
Частота кадров : 23,976 (24000/1001) кадра/сек
Цветовое пространство : YUV
Субдискретизация насыщенности : 4:2:0
Битовая глубина : 8 бит
Тип развёртки : Прогрессивная
Бит/(Пиксели*Кадры) : 0.174
Размер потока : 3,10 Гбайт (81%)
Язык : English
Default : Да
Forced : Нет
Цветовой диапазон : Limited
Основные цвета : BT.709
Характеристики трансфера : BT.709
Коэффициенты матрицы : BT.709

Аудио #1
Идентификатор : 2
Формат : AC-3
Формат/Информация : Audio Coding 3
Коммерческое название : Dolby Digital
Идентификатор кодека : A_AC3
Продолжительность : 51 м. 20 с.
Вид битрейта : Постоянный
Битрейт : 640 Кбит/сек
Каналы : 6 каналов
ChannelLayout : L R C LFE Ls Rs
Частота : 48,0 КГц
Частота кадров : 31,250 кадров/сек (1536 SPF)
Битовая глубина : 16 бит
Метод сжатия : С потерями
Размер потока : 235 Мбайт (6%)
Заголовок : LostFilm
Язык : Russian
ServiceKind/String : Complete Main
Default : Да
Forced : Нет

Аудио #2
Идентификатор : 3
Формат : AC-3
Формат/Информация : Audio Coding 3
Коммерческое название : Dolby Digital
Идентификатор кодека : A_AC3
Продолжительность : 51 м. 20 с.
Вид битрейта : Постоянный
Битрейт : 384 Кбит/сек
Каналы : 6 каналов
ChannelLayout : L R C LFE Ls Rs
Частота : 48,0 КГц
Частота кадров : 31,250 кадров/сек (1536 SPF)
Битовая глубина : 16 бит
Метод сжатия : С потерями
Размер потока : 141 Мбайт (4%)
Заголовок : NewStudio
Язык : Russian
ServiceKind/String : Complete Main
Default : Нет
Forced : Нет

Аудио #3
Идентификатор : 4
Формат : AC-3
Формат/Информация : Audio Coding 3
Коммерческое название : Dolby Digital
Идентификатор кодека : A_AC3
Продолжительность : 51 м. 20 с.
Вид битрейта : Постоянный
Битрейт : 192 Кбит/сек
Каналы : 2 канала
ChannelLayout : L R
Частота : 48,0 КГц
Частота кадров : 31,250 кадров/сек (1536 SPF)
Битовая глубина : 16 бит
Метод сжатия : С потерями
Размер потока : 70,5 Мбайт (2%)
Заголовок : HDRezka Studio
Язык : Russian
ServiceKind/String : Complete Main
Default : Нет
Forced : Нет

Аудио #4
Идентификатор : 5
Формат : AC-3
Формат/Информация : Audio Coding 3
Коммерческое название : Dolby Digital
Идентификатор кодека : A_AC3
Продолжительность : 51 м. 20 с.
Вид битрейта : Постоянный
Битрейт : 640 Кбит/сек
Каналы : 6 каналов
ChannelLayout : L R C LFE Ls Rs
Частота : 48,0 КГц
Частота кадров : 31,250 кадров/сек (1536 SPF)
Битовая глубина : 16 бит
Метод сжатия : С потерями
Размер потока : 235 Мбайт (6%)
Язык : English
ServiceKind/String : Complete Main
Default : Нет
Forced : Нет

Текст #1
Идентификатор : 6
Формат : UTF-8
Идентификатор кодека : S_TEXT/UTF8
Идентификатор кодека/Информация : UTF-8 Plain Text
Язык : Russian
Default : Нет
Forced : Нет

Текст #2
Идентификатор : 7
Формат : UTF-8
Идентификатор кодека : S_TEXT/UTF8
Идентификатор кодека/Информация : UTF-8 Plain Text
Заголовок : SDH
Язык : English
Default : Нет
Forced : Нет

Внимание! Раздача ведётся путём добавления новых серий; при каждом добавлении создаётся новый торрент.
Чтобы начать докачку новой серии, пользователям необходимо сделать следующее:
1. Остановить скачивание;
2. Удалить старый торрент у себя из клиента (старые серии удалять не надо);
3. Скачать новый торрент и запустить его у себя в клиенте вместо старого, при этом указать клиенту путь в старую папку куда и должно происходить скачивание новых серий. Ваш клиент при этом должен произвести хеширование (проверку) старой папки и будет докачивать только те серии, которых у вас ещё нет. Старые серии при этом не удаляются, а продолжают раздаваться! Eсли вы уже удалили старые серии, то предотвратить повторную закачку старых серий можно, отжав галочку в соответствующих местах при запуске нового торрента.

pb.wtf



Скачать Сквозь снег через торрент https://i6.imageban.ru/out/2020/05/20/c3029caa6ad6866aa48370c60f025fcd.png Скачать фильм Сквозь снег через торрент бесплантно в хорошем качестве Описание: Мир претерпел техногенную катастрофу, которая привела к новому ледниковому периоду. По трансевразийской магистрали мчится ... 10 10 4
Торрент: Зарегистрирован [2020-05-23 02:18] · скачан: 28 раз
Статус: √ проверено
Размер: 3.84 GB
Как cкачать? Как скачать Сквозь снег через торрент | qTorrent

28-11-2019 20:33  

Отключить всю рекламу на сайте

24-05-2020 19:21 Сквозь снег Скачать торрент  

..ага по магистрали..и кто ёё чистит..и заодно ремонтирует эту магистраль ???..я уж молчу про ТО самого поезда снаружи...лютый бредpb.wtf



    Дорогой пользователь! Огромная просьба, поблагодарите релизера, оцените раздачу и оставьте свои комментарий, если Вы скачали Сквозь снег через торрент бесплатно! Внесите свою лепту в развитие PiratBit!
    Комментировать посты могут только пользователи прошедшие не сложную регистрацию
    Показать сообщения:    

    Сквозь снег через торрент
    Скачать бесплатно Сквозь снег
    Сквозь снег скачать торрент
    Сквозь снег смотреть онлайн
    Cкачать фильм Сквозь снег бесплатно
    Сквозь снег скачать торрент в хорошем качестве
    Сквозь снег смотреть онлайн бесплатно в хорошем качестве


    Вы не можете начинать темы
    Вы не можете отвечать на сообщения
    Вы не можете редактировать свои сообщения
    Вы не можете удалять свои сообщения
    Вы не можете голосовать в опросах
    Вы не можете прикреплять файлы к сообщениям
    Вы можете скачивать файлы