Ссылка на приватное зеркало нашего сайта всего за 1$. Внимание количество ограничено!!!

2 сезон

iTunes

1 сезон

1

iTunes

iTunes

iTunes

1 сезон

RePack

30

ИГРА 18+

pack

ВАЖНО

!!Акция!!

Alien_RageХит недели

RePack

MK11
pack

Забери бонус

RePack

jed

!!Акция!!

Alien_Rage

RePack

fifa19

RePack

Assassins Creed: Odyssey

RePack

NEED FOR SPEED™ PAYBACK

4 сезон

9 сезон

Бесстыжие 9 сезон

Все сериалы

все сериалы на PB.wtf

RePack

FAR CRY 5
  

Последний министр / Сезон: 1 / Серии: 1-16 из 16 (Роман Волобуев) [2020, Комедия, WEBRip] pb.wtf

Последний министр через торрент pb.wtf

Раздают: 2 [ 0 KB/s ]
Размер: 4.36 GB | Добавлен: 4 мес. 28 д. назад | Торрент скачан:196 раз
Скачать  

23-05-2020 13:56 Последний министр Скачать торрент  

Последний министр
Год выпуска: 2020
Страна: Россия
Жанр: Комедия
Продолжительность: ~ 00:23:00
Субтитры: отсутствуют

Режиссер: Роман Волобуев



В ролях: Ян Цапник, Ольга Сутулова, Нелли Уварова, Сергей Епишев, Анна Шепелева, Софья Лебедева, Алексей Золотовицкий, Дарья Носик, Екатерина Носик, Сергей Степин

Описание: Когда министром перспективного планирования назначают деятельного неудачника, никто представить не может, к чему это приведёт. Оказывается, новый министр действительно хочет изменить жизнь людей к лучшему и для этого вместе с командой активно продвигает собственные инициативы. Правда, инициативы эти не всегда разумны, а результат — крайне непредсказуем.

Качество: WEBRip
Формат: AVI

Видео: XviD build 73, 720x320 (2.25:1), 23.976 fps, ~ 1550 Kbps (~ 0.285 bit/pixel)
Аудио: 48.0 kHz, MP3, 2/0 ch, 192 kbps
скриншот  скриншот  скриншот  скриншот  скриншот  

General
Complete name: D:RazdachiPoslednij.Ministr.2020.WEB-DLRip.GeneralFilm2.Poslednij.Ministr.avi
Format: AVI
Format/Info: Audio Video Interleave
File size: 279 MiB
Duration: 21 min 54 s
Overall bit rate: 1 778 kb/s
Writing application: VirtualDubMod 1.5.10.3 | www.virtualdub-fr.org || (build 2550/release)
Writing library: VirtualDubMod build 2550/release

Video
ID: 0
Format: MPEG-4 Visual
Format profile: Advanced Simple@L5
Format settings: BVOP1 / Custom Matrix
Format settings, BVOP: 1
Format settings, QPel: No
Format settings, GMC: No warppoints
Format settings, Matrix: Custom
Codec ID: XVID
Codec ID/Hint: XviD
Duration: 21 min 54 s
Bit rate: 1 577 kb/s
Width: 720 pixels
Height: 320 pixels
Display aspect ratio: 2.25:1
Frame rate: 23.976 (24000/1001) FPS
Color space: YUV
Chroma subsampling: 4:2:0
Bit depth: 8 bits
Scan type: Progressive
Compression mode: Lossy
Bits/(Pixel*Frame): 0.285
Stream size: 247 MiB (89%)
Writing library: XviD 73

Audio
ID: 1
Format: MPEG Audio
Format version: Version 1
Format profile: Layer 3
Codec ID: 55
Codec ID/Hint: MP3
Duration: 21 min 54 s
Bit rate mode: Constant
Bit rate: 192 kb/s
Channel(s): 2 channels
Sampling rate: 48.0 kHz
Frame rate: 41.667 FPS (1152 SPF)
Compression mode: Lossy
Stream size: 30.1 MiB (11%)
Alignment: Aligned on interleaves
Interleave, duration: 42 ms (1.00 video frame)
Interleave, preload duratio: 504 ms
Writing library: LAME3.99r
Encoding settings: -m s -V 4 -q 2 -lowpass 18.6 -b 192

pb.wtf



Скачать Последний министр через торрент http://a.kartinko.org/image_library/1/200311.jpg Скачать фильм Последний министр через торрент бесплантно в хорошем качестве Описание: Когда министром перспективного планирования назначают деятельного неудачника, никто представить не может, к чему это приведёт. ... 10 10 7
Торрент: Зарегистрирован [2020-05-23 13:56] · скачан: 196 раз
Статус: √ проверено
Размер: 4.36 GB
Как cкачать? Как скачать Последний министр через торрент | qTorrent

% Раздел Тема Автор DL S | L
Наши сериалы [ 4.69 GB ] Последний министр / Сезон: 1 / Серии: 1-16 из 16 [2020 WEB-DLRip] bober100 Скачать
1 | 0
Наши сериалы [ 13.07 GB ] Последний министр / Сезон: 1 / Серии: 1-16 из 16 [2020 WEBRip 720p] bober100 Скачать
2 | 0
Наши сериалы [ 5.34 GB ] Последний министр / Сезон: 1 / Серии: 1-16 из 16 [2020 WEBRip-AVC] bober100 Скачать
1 | 0
Наши сериалы [ 19.01 GB ] Последний министр / Сезон: 1 / Серии: 1-16 из 16 [2020 WEBRip 1080p] bober100 Скачать
3 | 0

28-11-2019 20:33  

Отключить всю рекламу на сайте

    Дорогой пользователь! Огромная просьба, поблагодарите релизера, оцените раздачу и оставьте свои комментарий, если Вы скачали Последний министр через торрент бесплатно! Внесите свою лепту в развитие PiratBit!
    Комментировать посты могут только пользователи прошедшие не сложную регистрацию
    Показать сообщения:    

    Последний министр через торрент
    Скачать бесплатно Последний министр
    Последний министр скачать торрент
    Последний министр смотреть онлайн
    Cкачать фильм Последний министр бесплатно
    Последний министр скачать торрент в хорошем качестве
    Последний министр смотреть онлайн бесплатно в хорошем качестве


    Вы не можете начинать темы
    Вы не можете отвечать на сообщения
    Вы не можете редактировать свои сообщения
    Вы не можете удалять свои сообщения
    Вы не можете голосовать в опросах
    Вы не можете прикреплять файлы к сообщениям
    Вы можете скачивать файлы