2 сезон

iTunes

MVO

1

2 сезон

iTunes

iTunes

1 сезон

RePack

30

Новинка

ВАЖНО

ИГРА 18+

pack

RePack

MK11
pack

Легкие деньги

RePack

jed

RePack

fifa19

RePack

RDR2

RePack

NEED FOR SPEED™ PAYBACK

4 сезон

9 сезон

Бесстыжие 9 сезон

Все сериалы

все сериалы на PB.wtf

RePack

FAR CRY 5

Anonymous, доброй ночи, мы не успеваем собрать деньги на оплату серверов за декабрь и январь, помогите нам пожалуйста в это трудное время. В качестве благодарности мы отключим Вам всю рекламу на сайте (укажите свой ник в строку Ваше имя)!

×
  
Magnet ссылка

Рэмбо: Последняя кровь / Rambo: Last Blood (Адриан Грюнберг) [2019 г., Боевик, триллер, приключения, BDRip 720p / 60 FPS, Дубляж] (Extended Cut) от R.G. HD-Films pb.wtf

Рэмбо: Последняя кровь через торрент pb.wtf

Раздают: 1 [ 0 KB/s ]
Размер: 3.31 GB | Добавлен: 8 мес. назад | Торрент скачан:78 раз
Скачать  

23-05-2020 16:26 Рэмбо: Последняя кровь Скачать торрент  

Рэмбо: Последняя кровь / Rambo: Last Blood
Год выпуска: : 2019
Страна: : США, Испания, Болгария
Жанр: : Боевик, триллер, приключения
Продолжительность: 01:40:30
Перевод: Дублированный | iTunes
Субтитры: Russian, English

Режиссер: Адриан Грюнберг

Бюджет: $50 000 000
Премьера в мире: 18 сентября 2019

rating

В ролях: Сильвестр Сталлоне, Пас Вега, Ивет Монреаль, Луис Мэндилор, Оскар Хаенада, Шила Шах, Серхио Перис-Менчета, Джессика Мэдсен, Хоакин Косио, Адриана Барраса, Джени Ким, Паскасио Лопес, Александр Димитров

Сюжет фильма: Он хранил секреты всю жизнь, но пришло время взглянуть в глаза прошлому. В последний раз собраться и стать безжалостной машиной для убийства. Рэмбо снова встанет на смертельно опасный путь — путь мести, который ему придется пройти до конца.

Качество видео: BDRip 720p / 60 FPS
Формат: MKV
Видео кодек: H.264
Аудио кодек: AC3
Видео : x264, 1280 x 536 ( 2,40:1 ), 4339 kbps, 60,000 fps, ( 0.105 bpp)
Аудио : Русский, AC-3, 48.0 KHz, 6 ch, 384 Kbps
Релиз от:

скриншот   скриншот   скриншот   скриншот   скриншот   скриншот  Автор рипа: slaventi-69
x264 [info]: frame I:1909 Avg QP:15.29 size: 68237
x264 [info]: frame P:88107 Avg QP:16.36 size: 18595
x264 [info]: frame B:271427 Avg QP:19.05 size: 5521
x264 [info]: consecutive B-frames: 3.1% 3.5% 7.4% 14.7% 59.8% 11.5%


Общее
Уникальный идентификатор : 223650098572287316587783151413756970997 (0xA84171336669A48CC75DCEBDBD2047F5)
Полное имя : F:\Rambo_Last.Blood.(2019).BDRip.720p.(60 Fps).(Extended-Cut).mkv
Формат : Matroska
Версия формата : Version 4
Размер файла : 3,31 Гбайт
Продолжительность : 1 ч. 40 м.
Общий поток : 4727 Кбит/сек
Название фильма : Рэмбо: Последняя кровь / Rambo: Last Blood (2019) BDRip 720p (60 Fps) | Extended Cut
Дата кодирования : UTC 2020-05-11 16:07:15
Программа кодирования : mkvmerge v42.0.0 ('Overtime') 64-bit
Библиотека кодирования : libebml v1.3.10 + libmatroska v1.5.2

Видео
Идентификатор : 1
Формат : AVC
Формат/Информация : Advanced Video Codec
Профиль формата : High@L4.1
Настройки формата : CABAC / 8 Ref Frames
Параметр CABAC формата : Да
Параметр RefFrames формата : 8 кадров
Идентификатор кодека : V_MPEG4/ISO/AVC
Продолжительность : 1 ч. 40 м.
Битрейт : 4339 Кбит/сек
Ширина : 1280 пикселей
Высота : 536 пикселей
Соотношение сторон : 2,40:1
Режим частоты кадров : Постоянный
Частота кадров : 60,000 кадров/сек
Цветовое пространство : YUV
Субдискретизация насыщенности : 4:2:0
Битовая глубина : 8 бит
Тип развёртки : Прогрессивная
Бит/(Пиксели*Кадры) : 0.105
Размер потока : 3,04 Гбайт (92%)
Заголовок : slaventi-69 ( R.G. HD-Films | 60 fps )
Библиотека кодирования : x264 core 130 r2273 b3065e6
Настройки программы : cabac=1 / ref=8 / deblock=1:-1:-1 / analyse=0x3:0x133 / me=umh / subme=7 / psy=1 / psy_rd=1.00:0.00 / mixed_ref=1 / me_range=28 / chroma_me=1 / trellis=2 / 8x8dct=1 / cqm=0 / deadzone=21,11 / fast_pskip=0 / chroma_qp_offset=-2 / threads=6 / lookahead_threads=1 / sliced_threads=0 / nr=0 / decimate=1 / interlaced=0 / bluray_compat=0 / constrained_intra=0 / bframes=5 / b_pyramid=2 / b_adapt=2 / b_bias=0 / direct=3 / weightb=1 / open_gop=0 / weightp=2 / keyint=600 / keyint_min=25 / scenecut=40 / intra_refresh=0 / rc=crf / mbtree=0 / crf=16.5 / qcomp=0.60 / qpmin=0 / qpmax=69 / qpstep=4 / ip_ratio=1.40 / pb_ratio=1.30 / aq=1:1.00
Язык : English
Default : Да
Forced : Нет

Аудио
Идентификатор : 2
Формат : AC-3
Формат/Информация : Audio Coding 3
Коммерческое название : Dolby Digital
Идентификатор кодека : A_AC3
Продолжительность : 1 ч. 40 м.
Вид битрейта : Постоянный
Битрейт : 384 Кбит/сек
Каналы : 6 каналов
Channel layout : L R C LFE Ls Rs
Частота : 48,0 КГц
Частота кадров : 31,250 кадров/сек (1536 SPF)
Битовая глубина : 16 бит
Метод сжатия : С потерями
Размер потока : 276 Мбайт (8%)
Заголовок : iTunes
Язык : Russian
ServiceKind/String : Complete Main
Default : Да
Forced : Нет

Текст #1
Идентификатор : 3
Формат : UTF-8
Идентификатор кодека : S_TEXT/UTF8
Идентификатор кодека/Информация : UTF-8 Plain Text
Продолжительность : 1 ч. 33 м.
Битрейт : 58 бит/сек
ElementCount : 809
Размер потока : 40,0 Кбайт (0%)
Заголовок : Full [Enigma]
Язык : Russian
Default : Нет
Forced : Нет

Текст #2
Идентификатор : 4
Формат : UTF-8
Идентификатор кодека : S_TEXT/UTF8
Идентификатор кодека/Информация : UTF-8 Plain Text
Продолжительность : 1 ч. 29 м.
Битрейт : 27 бит/сек
ElementCount : 629
Размер потока : 17,9 Кбайт (0%)
Заголовок : Full
Язык : English
Default : Нет
Forced : Нет

Меню
00:00:00.000 : en:Глава 01
00:08:00.063 : en:Глава 02
00:18:19.265 : en:Глава 03
00:29:01.031 : en:Глава 04
00:38:06.242 : en:Глава 05
00:44:42.513 : en:Глава 06
00:51:34.800 : en:Глава 07
00:59:39.326 : en:Глава 08
01:07:53.152 : en:Глава 09
01:14:41.060 : en:Глава 10
01:21:38.852 : en:Глава 11
01:29:51.344 : en:Глава 12

Просьба к переливающим на другие сайты, в оформлении указывайте пожалуйста авторство группы R.G. HD-Films pb.wtf



Скачать Рэмбо: Последняя кровь через торрент https://d.radikal.ru/d15/2002/73/fb8791aba840.jpg Скачать фильм Рэмбо: Последняя кровь через торрент бесплантно в хорошем качестве В ролях: Сильвестр Сталлоне, Пас Вега, Ивет Монреаль, Луис Мэндилор, Оскар Хаенада, Шила Шах, Серхио Перис-Менчета, Джессика Мэдсен, ... 10 10 6
Торрент: Зарегистрирован [2020-05-23 16:26] · скачан: 78 раз
Статус: √ проверено
Размер: 3.31 GB
Как cкачать? Как скачать Рэмбо: Последняя кровь через торрент | UTorrent

28-11-2019 20:33  

Отключить всю рекламу на сайте

23-05-2020 18:18 Рэмбо: Последняя кровь Скачать торрент  

давайте все части рембо в 60 фпсpb.wtf



25-05-2020 12:07 Рэмбо: Последняя кровь Скачать торрент  

Бумер писал(а):

давайте все части рембо в 60 фпс

Достойное продолжение квадрологии - ссылка!pb.wtf



    Дорогой пользователь! Огромная просьба, поблагодарите релизера, оцените раздачу и оставьте свои комментарий, если Вы скачали Рэмбо: Последняя кровь через торрент бесплатно! Внесите свою лепту в развитие PiratBit!
    Комментировать посты могут только пользователи прошедшие не сложную регистрацию
    Показать сообщения:    

    Рэмбо: Последняя кровь через торрент
    Скачать бесплатно Рэмбо: Последняя кровь
    Рэмбо: Последняя кровь скачать торрент
    Рэмбо: Последняя кровь смотреть онлайн
    Cкачать фильм Рэмбо: Последняя кровь бесплатно
    Рэмбо: Последняя кровь скачать торрент в хорошем качестве
    Рэмбо: Последняя кровь смотреть онлайн бесплатно в хорошем качестве


    Вы не можете начинать темы
    Вы не можете отвечать на сообщения
    Вы не можете редактировать свои сообщения
    Вы не можете удалять свои сообщения
    Вы не можете голосовать в опросах
    Вы не можете прикреплять файлы к сообщениям
    Вы можете скачивать файлы