Ссылка на приватное зеркало всего за 1$. Внимание количество ограничено!!!

iTunes

iTunes

iTunes

1

iTunes

iTunes

iTunes

iTunes

iTunes

30
pack

Новость дня

ВАЖНО

!!Акция!!

Alien_RageХит недели

RePack

Resident Evil 21

ИГРА 18+

pack

RePack

jed

!!Акция!!

Alien_Rage

RePack

fifa19

RePack

Assassins Creed: Odyssey

RePack

NEED FOR SPEED™ PAYBACK

4 сезон

9 сезон

Бесстыжие 9 сезон

Все сериалы

все сериалы на PB.wtf

RePack

FAR CRY 5
  

Охота на воров / Den of Thieves (Кристиан Гьюдгэст) [2018 г., боевик, триллер, драма, криминал, детектив, BDRip - HEVC 1080p 10 bit 60 FPS, AVO Яроцкий] pb.wtf

Охота на воров через торрент pb.wtf

Раздают: 21 [ 54 KB/s ] Качают: 2 [ 0 KB/s ]
Размер: 5.35 GB | Добавлен: 3 д. назад | Торрент скачан:92 раза
Скачать  

23-05-2020 18:15 Охота на воров Скачать торрент  

Охота на воров / Den of Thieves
Год выпуска: 2018
Страна: США
Жанр: боевик, триллер, драма, криминал, детектив,
Продолжительность: 02:28:49
Перевод: Авторский (одноголосый, закадровый) | Михаил Яроцкий

Режиссер: Кристиан Гьюдгэст

Бюджет: $30 000 000
Премьера в мире: 18 января 2018

rating

В ролях: Джерард Батлер, Пабло Шрайбер, О’Ши Джексон мл., Фифти Сент, Медоу Уильямс, Морис Комт, Брайан Ван Холт, Ивэн Джонс, Мо, Каиви Лайман

Описание: Большой Ник — начальник элитного подразделения полиции Лос-Анджелеса — ежедневно доказывает, что его команда более крутая, чем те, на кого они охотятся. Когда коп узнает, что легендарный и неуловимый вор планирует дерзкое ограбление Федерального резервного банка США, то он решает помешать этому любым способом. И играть по правилам он не привык.

Качество: BDRip 1080p / 60 FPS
Формат: MKV
Видео кодек: H.265
Аудио кодек: AC3
Видео: V_MPEGH/ISO/HEVC; 1920x800 (2.40:1); 4505 Kbps; 59,940 fps; 0,049 bpp
Аудио: русский; AC3; 640 Kbps; CBR; 6 ch

Релиз от: DD2D3
скриншот   скриншот   скриншот   скриншот   скриншот   скриншот  

General
Unique ID : 226892579683903193741993935599398851562 (0xAAB1EBDCC20BAFA6A2F4BBD255DC93EA)
Complete name : D:\Охота на воров - Den of Thieves (2018) BDRip - HEVC 1080p 10 bit 60 FPS.mkv
Format : Matroska
Format version : Version 4
File size : 5.35 GiB
Duration : 2 h 28 min
Overall bit rate : 5 150 kb/s
Movie name : Rip by from DD2D3
Encoded date : UTC 2020-05-23 16:39:09
Writing application : mkvmerge v10.0.0 ('To Drown In You') 32bit
Writing library : libebml v1.3.4 + libmatroska v1.4.5
Attachments : poster

Video
ID : 1
Format : HEVC
Format/Info : High Efficiency Video Coding
Format profile : Main 10@L4.1@Main
Codec ID : V_MPEGH/ISO/HEVC
Duration : 2 h 28 min
Bit rate : 4 506 kb/s
Width : 1 920 pixels
Height : 800 pixels
Display aspect ratio : 2.40:1
Frame rate mode : Constant
Frame rate : 59.940 (60000/1001) FPS
Color space : YUV
Chroma subsampling : 4:2:0
Bit depth : 10 bits
Bits/(Pixel*Frame) : 0.049
Stream size : 4.68 GiB (87%)
Writing library : x265 2.3+33-0b7d54dbb71a87a0:[Windows][MSVC 1800][64 bit] 10bit: KG7x [x265.ru]
Encoding settings : cpuid=1173503 / frame-threads=2 / numa-pools=4 / wpp / no-pmode / no-pme / no-psnr / no-ssim / log-level=2 / input-csp=1 / input-res=1920x800 / interlace=0 / total-frames=535236 / level-idc=41 / high-tier=1 / uhd-bd=0 / ref=3 / no-allow-non-conformance / no-repeat-headers / annexb / no-aud / no-hrd / info / hash=0 / no-temporal-layers / open-gop / min-keyint=25 / keyint=250 / bframes=4 / b-adapt=2 / b-pyramid / bframe-bias=0 / rc-lookahead=20 / lookahead-slices=5 / scenecut=40 / no-intra-refresh / ctu=64 / min-cu-size=8 / no-rect / no-amp / max-tu-size=32 / tu-inter-depth=1 / tu-intra-depth=1 / limit-tu=0 / rdoq-level=0 / dynamic-rd=0.00 / no-ssim-rd / signhide / no-tskip / nr-intra=0 / nr-inter=0 / no-constrained-intra / strong-intra-smoothing / max-merge=2 / limit-refs=3 / no-limit-modes / me=1 / subme=2 / merange=57 / temporal-mvp / weightp / no-weightb / no-analyze-src-pics / deblock=0:0 / no-sao / no-sao-non-deblock / rd=3 / no-early-skip / no-rskip / no-fast-intra / no-tskip-fast / no-cu-lossless / no-b-intra / rdpenalty=0 / psy-rd=4.00 / psy-rdoq=0.00 / no-rd-refine / analysis-mode=0 / no-lossless / cbqpoffs=0 / crqpoffs=0 / rc=abr / bitrate=4500 / qcomp=0.60 / qpstep=1 / stats-write=0 / stats-read=2 / cplxblur=20.0 / qblur=0.5 / ipratio=1.10 / pbratio=1.00 / aq-mode=0 / aq-strength=0.00 / no-cutree / zone-count=0 / no-strict-cbr / qg-size=64 / rc-grain / qpmax=69 / qpmin=0 / sar=1 / overscan=0 / videoformat=5 / range=0 / colorprim=2 / transfer=2 / colormatrix=2 / chromaloc=0 / display-window=0 / max-cll=0,0 / min-luma=0 / max-luma=1023 / log2-max-poc-lsb=8 / vui-timing-info / vui-hrd-info / slices=1 / opt-qp-pps / opt-ref-list-length-pps / no-multi-pass-opt-rps / scenecut-bias=0.05 / no-opt-cu-delta-qp / no-aq-motion / no-hdr / no-hdr-opt / refine-level=5 / no-limit-sao
Default : Yes
Forced : No

Audio
ID : 2
Format : AC-3
Format/Info : Audio Coding 3
Commercial name : Dolby Digital
Codec ID : A_AC3
Duration : 2 h 28 min
Bit rate mode : Constant
Bit rate : 640 kb/s
Channel(s) : 6 channels
Channel layout : L R C LFE Ls Rs
Sampling rate : 48.0 kHz
Frame rate : 31.250 FPS (1536 SPF)
Compression mode : Lossy
Stream size : 681 MiB (12%)
Title : AVO(M.Yarotskiy)
Language : Russian
Service kind : Complete Main
Default : Yes
Forced : No

Menu
00:00:00.000 : en:00:00:00.000
00:09:38.870 : en:00:09:38.870
00:17:31.968 : en:00:17:31.968
00:24:03.734 : en:00:24:03.734
00:30:30.412 : en:00:30:30.412
00:43:48.084 : en:00:43:48.084
00:49:54.992 : en:00:49:54.992
00:58:58.285 : en:00:58:58.285
01:05:05.109 : en:01:05:05.109
01:10:42.780 : en:01:10:42.780
01:16:20.993 : en:01:16:20.993
01:25:11.481 : en:01:25:11.481
01:29:54.514 : en:01:29:54.514
01:35:50.870 : en:01:35:50.870
01:40:39.909 : en:01:40:39.909
01:50:22.532 : en:01:50:22.532
01:58:30.728 : en:01:58:30.728
02:04:59.909 : en:02:04:59.909
02:14:28.018 : en:02:14:28.018
02:22:15.318 : en:02:22:15.318

pb.wtf



Скачать Охота на воров через торрент https://funkyimg.com/i/358db.jpg Скачать фильм Охота на воров через торрент бесплантно в хорошем качестве Описание: Большой Ник — начальник элитного подразделения полиции Лос-Анджелеса — ежедневно доказывает, что его команда более крутая, чем ... 7.8 10 6
Торрент: Зарегистрирован [2020-05-23 18:15] · скачан: 92 раз
Статус: √ проверено
Размер: 5.35 GB
Как cкачать? Как скачать Охота на воров через торрент | qTorrent

% Раздел Тема Автор DL S | L
Фильмы с авторской озвучкой [ 2.63 GB ] Охота на воров / Вертеп разбойников / Логово грабителей / Den of Thieves [2018 BDRip] [Расширенная версия / Unrated Cut] 2x[AVO] killermax2013 Скачать
3 | 1
Фильмы с авторской озвучкой [ 2.47 GB ] Охота на воров / Den of Thieves [2018 BDRip-AVC] [UNRATED] [AVO] killermax2013 Скачать
2 | 0
Фильмы (Blu-ray, BD-Remux, HDDVD) [ 33.81 GB ] Охота на воров / Den of Thieves [2018 BD Remux 1080p] DUB [] [Театральная версия] bober100 Скачать
2 | 0
Фильмы 2018 [DVDrip, WEB-DLRip, HDrip] (DUB, MVO) [ 2.16 GB ] Охота на воров / Den of Thieves [2018 BDRip-AVC] - [] - ExKinoRay Enigma2010 Скачать
10 | 0
Фильмы 2018 [DVDrip, WEB-DLRip, HDrip] (DUB, MVO) [ 2.18 GB ] Охота на воров / Den of Thieves [2018 BDRip] - [] Twi7ter Скачать
3 | 0
Фильмы (Blu-ray, BD-Remux, HDDVD) [ 30.18 GB ] Охота на воров / Den of Thieves [2018 Blu-ray 1080p ] DUB [] [Театральная версия] bober100 Скачать
1 | 0
Фильмы 2018 [DVDrip, WEB-DLRip, HDrip] (DUB, MVO) [ 2.18 GB ] Охота на воров / Den of Thieves [2018 BDRip] [Театральная версия] DUB [ BD RUS] bober100 Скачать
1 | 0


Последний раз редактировалось: dd2d3 (2020-05-23 19:23), всего редактировалось 4 раз(а)

28-11-2019 20:33  

Отключить всю рекламу на сайте

25-05-2020 04:53 Охота на воров Скачать торрент  

Огромное спасибо Юхуууууууууууу классный фильм pb.wtf



    Дорогой пользователь! Огромная просьба, поблагодарите релизера, оцените раздачу и оставьте свои комментарий, если Вы скачали Охота на воров через торрент бесплатно! Внесите свою лепту в развитие PiratBit!
    Комментировать посты могут только пользователи прошедшие не сложную регистрацию
    Показать сообщения:    

    Охота на воров через торрент
    Скачать бесплатно Охота на воров
    Охота на воров скачать торрент
    Охота на воров смотреть онлайн
    Cкачать фильм Охота на воров бесплатно
    Охота на воров скачать торрент в хорошем качестве
    Охота на воров смотреть онлайн бесплатно в хорошем качестве


    Вы не можете начинать темы
    Вы не можете отвечать на сообщения
    Вы не можете редактировать свои сообщения
    Вы не можете удалять свои сообщения
    Вы не можете голосовать в опросах
    Вы не можете прикреплять файлы к сообщениям
    Вы можете скачивать файлы