Ссылка на приватное зеркало нашего сайта всего за 1$. Внимание количество ограничено!!!

2 сезон

iTunes

1 сезон

1

iTunes

iTunes

iTunes

1 сезон

RePack

30

ИГРА 18+

pack

ВАЖНО

!!Акция!!

Alien_RageХит недели

RePack

MK11
pack

Забери бонус

RePack

jed

!!Акция!!

Alien_Rage

RePack

fifa19

RePack

Assassins Creed: Odyssey

RePack

NEED FOR SPEED™ PAYBACK

4 сезон

9 сезон

Бесстыжие 9 сезон

Все сериалы

все сериалы на PB.wtf

RePack

FAR CRY 5
  

Синичка / Сезон: 4 / Серии: 1-4 из 4 (Карен Захаров) [2020, детектив, SATRip-AVC] pb.wtf

Синичка через торрент pb.wtf

Раздают: 1 [ 0 KB/s ]
Размер: 2.23 GB | Добавлен: 4 мес. 29 д. назад | Торрент скачан:60 раз
Скачать  

24-05-2020 11:45 Синичка Скачать торрент  

Синичка-4
Год выпуска: 2020
Страна: Россия | Марс Медиа Энтертейнмент
Жанр: детектив
Продолжительность: 00:47:00
Субтитры: нет
Режиссёр: Карен Захаров

В ролях:Глафира Тарханова, Сергей Губанов, Кирилл Запорожский, Джульетта Геринг, Иван Бровин, Татьяна Лютаева, Аристарх Ливанов, Евгения Ярушникова, Кирилл Емельянов, Софья Ардова
Описание:
Неизвестный затевает с Ульяной игру, цена которой - человеческие жизни. Несмотря на свой уникальный метод, Ульяна раз за разом оказывается на шаг позади убийцы. Пытаясь понять логику, по которой он выбирает жертв, героиня неожиданно осознает, что ключ ко всему кроется в прошлом ее семьи. С этого момента ставки в безумной игре поднимаются, и на кону оказываются жизни самых близких для Ульяны людей.

Качество: SATRip-AVC
Формат: MKV
Видео кодек: H.264
Аудио кодек: AC3
Видео: MPEG4 Video (H264), 720х400, 25fps,1500 Kbps,bit/pixel 0.208
Аудио : AC3 48000Hz, stereo, 192 kbps,2 ch
General
Unique ID : 240105919242591551597105059448434868056 (0xB4A2B7CCD796ACA2B50E310A45D63F58)
Complete name : E:\Синичка-4\01 серия_Синичка-4_rip by_Aleksan55.mkv
Format : Matroska
Format version : Version 2
File size : 576 MiB
Duration : 47 min 32 s
Overall bit rate : 1 694 kb/s
Encoded date : UTC 2020-05-24 08:55:52
Writing application : mkvmerge v7.8.0 ('River Man') 32bit built on Apr 3 2015 12:11:22
Writing library : libebml v1.3.1 + libmatroska v1.4.2

Video
ID : 1
Format : AVC
Format/Info : Advanced Video Codec
Format profile : High@L4.1
Format settings, CABAC : Yes
Format settings, RefFrames : 12 frames
Codec ID : V_MPEG4/ISO/AVC
Duration : 47 min 32 s
Bit rate : 1 500 kb/s
Width : 720 pixels
Height : 400 pixels
Display aspect ratio : 16:9
Frame rate mode : Constant
Frame rate : 25.000 FPS
Color space : YUV
Chroma subsampling : 4:2:0
Bit depth : 8 bits
Scan type : Progressive
Bits/(Pixel*Frame) : 0.208
Stream size : 499 MiB (87%)
Writing library : x264 core 146 r2538 121396c
Encoding settings : cabac=1 / ref=12 / deblock=1:-2:-2 / analyse=0x3:0x133 / me=umh / subme=9 / psy=1 / psy_rd=1.00:0.15 / mixed_ref=0 / me_range=24 / chroma_me=1 / trellis=2 / 8x8dct=1 / cqm=0 / deadzone=21,11 / fast_pskip=0 / chroma_qp_offset=-3 / threads=10 / lookahead_threads=5 / sliced_threads=0 / nr=0 / decimate=0 / interlaced=0 / bluray_compat=0 / constrained_intra=0 / bframes=12 / b_pyramid=2 / b_adapt=2 / b_bias=0 / direct=3 / weightb=1 / open_gop=0 / weightp=2 / keyint=250 / keyint_min=25 / scenecut=40 / intra_refresh=0 / rc_lookahead=40 / rc=2pass / mbtree=1 / bitrate=1500 / ratetol=1.0 / qcomp=0.60 / qpmin=0 / qpmax=60 / qpstep=4 / cplxblur=20.0 / qblur=0.5 / ip_ratio=1.40 / aq=1:1.00
Default : Yes
Forced : No
Color range : Limited
Color primaries : BT.601 PAL
Transfer characteristics : BT.470 System B, BT.470 System G
Matrix coefficients : BT.601

Audio
ID : 2
Format : AC-3
Format/Info : Audio Coding 3
Format settings, Endianness : Big
Codec ID : A_AC3
Duration : 47 min 32 s
Bit rate mode : Constant
Bit rate : 192 kb/s
Channel(s) : 2 channels
Channel positions : Front: L R
Sampling rate : 48.0 kHz
Frame rate : 31.250 FPS (1536 SPF)
Bit depth : 16 bits
Compression mode : Lossy
Stream size : 65.3 MiB (11%)
Service kind : Complete Main
Default : Yes
Forced : No
pb.wtf



Скачать Синичка через торрент http://i112.fastpic.ru/big/2020/0523/34/cc829fb69b25341833183af975ebf034.jpg Скачать фильм Синичка через торрент бесплантно в хорошем качестве Описание:Неизвестный затевает с Ульяной игру, цена которой - человеческие жизни. Несмотря на свой уникальный метод, Ульяна раз за разом ... 8 10 5
Торрент: Зарегистрирован [2020-05-24 11:45] · скачан: 60 раз
Статус: √ проверено
Размер: 2.23 GB
Как cкачать? Как скачать Синичка через торрент | qTorrent

% Раздел Тема Автор DL S | L
Наши сериалы [ 2.41 GB ] Синичка / Сезон: 4 / Серии: 1-4 из 4 [2020 WEB-DLRip-AVC] bober100 Скачать
1 | 0
Наши сериалы [ 2.42 GB ] Синичка / Сезон: 4 / Серии: 1-4 из 4 [2020 WEB-DLRip] bober100 Скачать
1 | 0
Наши сериалы [ 2.4 GB ] Синичка / Сезон: 3 / Серии: 1-4 из 4 [2020 WEB-DLRip-AVC] bober100 Скачать
1 | 0
Наши сериалы [ 2.41 GB ] Синичка / Сезон: 3 / Серии: 1-4 из 4 [2020 WEB-DLRip] bober100 Скачать
1 | 0
Наши сериалы [ 2.22 GB ] Синичка / Сезон: 3 / Серии: 1-4 из 4 [2020 SATRip-AVC] aleksan55 Скачать
2 | 0
Наши сериалы [ 2.48 GB ] Синичка / Сезон: 3 / Серии: 1-4 из 4 [2020 SATRip] bober100 Скачать
1 | 0
Зарубежные сериалы [ 8.72 GB ] Проект «Синяя книга» / Проект засекречен / Project Blue Book / Сезон: 2 / Серии: 1-4 из 10 [2020 WEBRip 1080] [MVO] killermax2013 Скачать
1 | 0

28-11-2019 20:33  

Отключить всю рекламу на сайте

    Дорогой пользователь! Огромная просьба, поблагодарите релизера, оцените раздачу и оставьте свои комментарий, если Вы скачали Синичка через торрент бесплатно! Внесите свою лепту в развитие PiratBit!
    Комментировать посты могут только пользователи прошедшие не сложную регистрацию
    Показать сообщения:    

    Синичка через торрент
    Скачать бесплатно Синичка
    Синичка скачать торрент
    Синичка смотреть онлайн
    Cкачать фильм Синичка бесплатно
    Синичка скачать торрент в хорошем качестве
    Синичка смотреть онлайн бесплатно в хорошем качестве


    Вы не можете начинать темы
    Вы не можете отвечать на сообщения
    Вы не можете редактировать свои сообщения
    Вы не можете удалять свои сообщения
    Вы не можете голосовать в опросах
    Вы не можете прикреплять файлы к сообщениям
    Вы можете скачивать файлы