Ссылка на приватное зеркало всего за 1$. Внимание количество ограничено!!!

iTunes

iTunes

iTunes

1

iTunes

iTunes

iTunes

WEBRip

iTunes

30
pack

$ от Little Big

ВАЖНО

!!Акция!!

Alien_RageХит недели

RePack

Resident Evil 21

ИГРА 18+

pack

RePack

jed

!!Акция!!

Alien_Rage

RePack

fifa19

RePack

Assassins Creed: Odyssey

RePack

NEED FOR SPEED™ PAYBACK

4 сезон

9 сезон

Бесстыжие 9 сезон

Все сериалы

все сериалы на PB.wtf

RePack

FAR CRY 5
  

Аванпост (Егор Баранов) [2019, триллер, фантастика, боевик, HDRip-AVC] [Лицензия] pb.wtf

Аванпост через торрент pb.wtf

Раздают: 23 [ 42 KB/s ]
Размер: 2.18 GB | Добавлен: 2 мес. 12 д. назад | Торрент скачан:637 раз
Скачать  

24-05-2020 19:34 Аванпост Скачать торрент  

Аванпост
Год выхода: 2019
Страна: Россия
Жанр: триллер, фантастика, боевик
Продолжительность: 02:07:30
Перевод: не требуется
Режиссер: Егор Баранов
В ролях: Лукерья Ильяшенко, Пётр Фёдоров, Светлана Иванова, Алексей Чадов, Ксения Кутепова, Константин Лавроненко, Филипп Авдеев, Артем Маркарьян, Сергей Годин, Артем Ткаченко
О фильме:
В недалеком будущем что-то произошло. Связь с большей частью населенных пунктов Земли оборвалась. Космонавты передали с орбиты, что видят сверху небольшое пятно в Восточной Европе, по своим очертаниям напоминающее круг. То, что военные находят за границей этого круга, шокирует. В магазинах, в автомобилях, на дорогах, в зданиях больниц и вокзалов, повсюду — следы столкновений. Кто или что уничтожает все живое? И как долго продержится последний аванпост человечества?



Качество: HDRip-AVC
Формат: MKV
Видео: MPEG-4 AVC, ~ 1996 Кбит/с, 1024x428
Аудио: 48 kHz, AC3 Dolby Digital, 3/2 (L,C,R,l,r) + LFE ch, ~448 kbps avg
General
Unique ID : 271008703952344625468928970138424093883 (0xCBE260B85CA68F3E78857042A326ACBB)
Complete name : G:\Avanpost.2019.Lic.HDRip.2.18Gb.x264.mkv
Format : Matroska
Format version : Version 4 / Version 2
File size : 2.18 GiB
Duration : 2h 7mn
Overall bit rate : 2 445 Kbps
Movie name : Avanpost.2019.O.BDRip
Encoded date : UTC 2020-05-24 18:36:43
Writing application : mkvmerge v46.0.0 ('No Deeper Escape') 64-bit
Writing library : libebml v1.3.10 + libmatroska v1.5.2
Attachements : cover.jpg

Video
ID : 1
Format : AVC
Format/Info : Advanced Video Codec
Format profile : High@L4.1
Format settings, CABAC : Yes
Format settings, ReFrames : 9 frames
Codec ID : V_MPEG4/ISO/AVC
Duration : 2h 7mn
Bit rate : 1 996 Kbps
Width : 1 024 pixels
Height : 428 pixels
Display aspect ratio : 2.40:1
Frame rate mode : Constant
Frame rate : 23.976 fps
Color space : YUV
Chroma subsampling : 4:2:0
Bit depth : 8 bits
Scan type : Progressive
Bits/(Pixel*Frame) : 0.190
Stream size : 1.74 GiB (80%)
Title : #stillet
Writing library : x264 core 152 r2851bm ba24899
Encoding settings : cabac=1 / ref=9 / deblock=1:-2:-2 / analyse=0x3:0x113 / me=umh / subme=11 / psy=1 / psy_rd=1.00:0.15 / mixed_ref=1 / me_range=32 / chroma_me=1 / trellis=2 / 8x8dct=1 / cqm=0 / deadzone=21,11 / fast_pskip=0 / chroma_qp_offset=-3 / threads=8 / lookahead_threads=3 / sliced_threads=0 / nr=0 / decimate=0 / interlaced=0 / bluray_compat=0 / constrained_intra=0 / bframes=10 / b_pyramid=2 / b_adapt=2 / b_bias=0 / direct=3 / weightb=1 / open_gop=0 / weightp=2 / keyint=240 / keyint_min=23 / scenecut=40 / intra_refresh=0 / rc=2pass / mbtree=0 / bitrate=1996 / ratetol=1.0 / qcomp=0.60 / qpmin=0 / qpmax=69 / qpstep=4 / cplxblur=20.0 / qblur=0.5 / ip_ratio=1.40 / pb_ratio=1.30 / aq=1:1.00
Language : English
Default : Yes
Forced : No

Audio
ID : 2
Format : AC-3
Format/Info : Audio Coding 3
Mode extension : CM (complete main)
Format settings, Endianness : Big
Codec ID : A_AC3
Duration : 2h 7mn
Bit rate mode : Constant
Bit rate : 448 Kbps
Channel(s) : 6 channels
Channel positions : Front: L C R, Side: L R, LFE
Sampling rate : 48.0 KHz
Compression mode : Lossy
Stream size : 409 MiB (18%)
Title : Лицензия
Language : Russian
Default : Yes
Forced : Yes

Menu
00:00:00.000 : en:Chapter 01
00:09:30.278 : en:Chapter 02
00:19:34.423 : en:Chapter 03
00:29:52.666 : en:Chapter 04
00:40:16.581 : en:Chapter 05
00:50:11.342 : en:Chapter 06
01:01:00.031 : en:Chapter 07
01:10:54.876 : en:Chapter 08
01:22:56.471 : en:Chapter 09
01:34:43.511 : en:Chapter 10
01:46:17.329 : en:Chapter 11
02:04:02.727 : en:Chapter 12

скриншот  скриншот  скриншот  
pb.wtf



Скачать Аванпост через торрент https://c.radikal.ru/c29/2005/d8/fb58a8bd14a5.jpg Скачать фильм Аванпост через торрент бесплантно в хорошем качестве О фильме:В недалеком будущем что-то произошло. Связь с большей частью населенных пунктов Земли оборвалась. Космонавты передали с орбиты, ... 10 10 12
Info! Золотая раздача, скачанное не засчитывается.
Торрент: Зарегистрирован [2020-05-24 19:34] · скачан: 637 раз
Статус: √ проверено
Размер: 2.18 GB
Как cкачать? Как скачать Аванпост через торрент | qTorrent

% Раздел Тема Автор DL S | L
* Оформление раздач (Кино, Видео и ТВ) [ 13.07 GB ] Аванпост / The Blackout [2019 60 fps Георгий Скачать
7 | 0
Наши фильмы (Blu-ray, BD-Remux, HDDVD) [ 39.62 GB ] Аванпост [2019 Blu-ray 1080p] [] bober100 Скачать
3 | 0
Наши фильмы (HD, WEB-DL 720p, 1080p) [ 6.45 GB ] Аванпост [2019 BDRip-HEVC 1080p ] [] bober100 Скачать
25 | 0
Наши новые фильмы 2018-2019 [ 2 GB ] Аванпост [2019 BDRip-AVC] [Русский] [] - ExKinoRay Enigma2010 Скачать
433 | 9
Наши новые фильмы 2018-2019 [ 2.18 GB ] Аванпост [2019 BDRip] [Русский] [] Twi7ter Скачать
65 | 1
Наши новые фильмы 2018-2019 [ 1.46 GB ] Аванпост [2019 BDRip] [Русский] [] Twi7ter Скачать
52 | 2
Наши новые фильмы 2018-2019 [ 750 MB ] Аванпост [2019 HDRip] [] bober100 Скачать
9 | 0

28-11-2019 20:33  

Отключить всю рекламу на сайте

25-05-2020 06:44 Аванпост Скачать торрент  

Наши уже второй раз в этом году годной фантастикой балуют,сначала Спутник теперь вот такой наш бюджетный,типа Дня независимости короче фильм понравился,молодцы могут же когда захотят.pb.wtf



25-05-2020 07:33 Аванпост Скачать торрент  

Денвир78 писал(а):

Наши уже второй раз в этом году годной фантастикой балуют,сначала Спутник теперь вот такой наш бюджетный,типа Дня независимости короче фильм понравился,молодцы могут же когда захотят.

а что могут то? по моему дешево, покатались на бтре, подрались на крыше?pb.wtf



25-05-2020 12:57 Аванпост Скачать торрент  

MalekUA писал(а):

Денвир78 писал(а):

Наши уже второй раз в этом году годной фантастикой балуют,сначала Спутник теперь вот такой наш бюджетный,типа Дня независимости короче фильм понравился,молодцы могут же когда захотят.

а что могут то? по моему дешево, покатались на бтре, подрались на крыше?

согласен, какая-то херь невнятная. по-мне спутник более наш, славянский что-ли. если уж графена надо, то велком ту "Кома", как мы, русские говорим))pb.wtf



25-05-2020 14:51 Аванпост Скачать торрент  

Фильм дерьмо, начало вроде интересное, но потом всё упирается в монологи и повествование про Дядь Серёжу который героически погиб в Сирии защищая русский народ.pb.wtf



26-05-2020 17:44 Аванпост Скачать торрент  

folax писал(а):

Фильм дерьмо, начало вроде интересное, но потом всё упирается в монологи и повествование про Дядь Серёжу который героически погиб в Сирии защищая русский народ.


ДЕРМИЩЕ знатное!! Очередной высер РФочкокинематографа pb.wtf



27-05-2020 19:10 Аванпост Скачать торрент  

80% стрельба, 15% сюжет, 5 % игра, 100 500% бюджетpb.wtf



28-05-2020 14:58 Аванпост Скачать торрент  

Пздц, товарищи! Такого знатного говнища с Защитников не смотрел.pb.wtf



02-06-2020 23:48 Аванпост Скачать торрент  

Den1k1n писал(а):

Пздц, товарищи! Такого знатного говнища с Защитников не смотрел.

Защитники это вообще не фильм,а набор клипов со спецэффектами.pb.wtf



    Дорогой пользователь! Огромная просьба, поблагодарите релизера, оцените раздачу и оставьте свои комментарий, если Вы скачали Аванпост через торрент бесплатно! Внесите свою лепту в развитие PiratBit!
    Комментировать посты могут только пользователи прошедшие не сложную регистрацию
    Показать сообщения:    

    Аванпост через торрент
    Скачать бесплатно Аванпост
    Аванпост скачать торрент
    Аванпост смотреть онлайн
    Cкачать фильм Аванпост бесплатно
    Аванпост скачать торрент в хорошем качестве
    Аванпост смотреть онлайн бесплатно в хорошем качестве


    Вы не можете начинать темы
    Вы не можете отвечать на сообщения
    Вы не можете редактировать свои сообщения
    Вы не можете удалять свои сообщения
    Вы не можете голосовать в опросах
    Вы не можете прикреплять файлы к сообщениям
    Вы можете скачивать файлы