Ссылка на приватное зеркало нашего сайта всего за 1$. Внимание количество ограничено!!!

2 сезон

iTunes

1 сезон

1

2 сезон

2 сезон

iTunes

1 сезон

RePack

30

Ultimate

ВАЖНО

ИГРА 18+

pack

RePack

MK11
pack

Забери бонус

RePack

jed

!!Акция!!

Alien_Rage

RePack

fifa19

RePack

Assassins Creed: Odyssey

RePack

NEED FOR SPEED™ PAYBACK

4 сезон

9 сезон

Бесстыжие 9 сезон

Все сериалы

все сериалы на PB.wtf

RePack

FAR CRY 5
  

Обратная связь / Feedback (Педро Корредоира) [2019, Ужасы, триллер, BD Remux 1080p] DUB [iTunes] pb.wtf

Обратная связь через торрент pb.wtf

Размер: 13.74 GB | Добавлен: 6 мес. назад | Торрент скачан:25 раз
Скачать  

24-05-2020 21:15 Обратная связь Скачать торрент  

Обратная связь | Feedback
Год выпуска: 2019
Страна: Испания, США
Студия: Ombra Films, Vaca Films, Xunta de Galicia
Жанр: Ужасы, триллер
Продолжительность: 01:37:20
Перевод: Дублированный | iTunes
Субтитры: Английские

Режиссер: Педро Корредоира

rating

В ролях: Эдди Марсан, Пол Андерсон, Ивана Бакеро, Ричард Брэйк, Оливер Куперсмит, Алексис Родни, Энтони Хэд, Алана Боден, Начо Альдегуэр, Стивен Хьюз

Описание: Популярный журналист ведёт ночную радиопрограмму под названием «Суровая реальность». Он заработал репутацию на резкой манере общения и новостях про звёзд, вот и этот эфир собирается начать с раскрытия публике скандала в футбольном бизнесе. Но в этот вечер всё пошло не так - в студию вламываются двое вооружённых неизвестных в масках, и у них свой план ведения передачи.

Качество: BD Remux 1080p
Формат: MKV

Видео: MPEG-4 AVC, 1920x1080, 18.0 Mbit/s, 24.000 fps
Аудио #01: 48 kHz, AC3, 5.1, 384 Kbps | iTunes | RUS |
Аудио #02: 48 kHz, DTS-HD MA, 5.1, 1821 Kbps | Оригинал | ENG |
скриншот  скриншот  скриншот  скриншот  скриншот  

Общее
Уникальный идентификатор : 313245524863880331621964834050764194525 (0xEBA8E4C4CF0F319559DBFCE17D7442DD)
Полное имя : C:\Feedback.2019.BDREMUX.1080p.seleZen.mkv
Формат : Matroska
Версия формата : Version 4
Размер файла : 13,7 Гбайт
Продолжительность : 1 ч. 37 м.
Режим общего битрейта : Переменный
Общий поток : 20,2 Мбит/сек
Название фильма : Feedback 2019 from селезень
Дата кодирования : UTC 2020-05-24 15:27:36
Программа кодирования : mkvmerge v40.0.0 ('Old Town Road + Pony') 64-bit
Библиотека кодирования : libebml v1.3.9 + libmatroska v1.5.2

Видео
Идентификатор : 1
Формат : AVC
Формат/Информация : Advanced Video Codec
Профиль формата : High@L4.1
Настройки формата : CABAC / 4 Ref Frames
Параметр CABAC формата : Да
Параметр RefFrames формата : 4 кадра
Идентификатор кодека : V_MPEG4/ISO/AVC
Продолжительность : 1 ч. 37 м.
Вид битрейта : Переменный
Битрейт : 18,0 Мбит/сек
Максимальный битрейт : 30,0 Мбит/сек
Ширина : 1920 пикселей
Высота : 1080 пикселей
Соотношение сторон : 16:9
Режим частоты кадров : Постоянный
Частота кадров : 24,000 кадра/сек
Стандарт вещания : Component
Цветовое пространство : YUV
Субдискретизация насыщенности : 4:2:0
Битовая глубина : 8 бит
Тип развёртки : Прогрессивная
Бит/(Пиксели*Кадры) : 0.362
Размер потока : 12,2 Гбайт (89%)
Библиотека кодирования : x264 core 148
Настройки программы : cabac=1 / ref=4 / deblock=1:0:0 / analyse=0x3:0x133 / me=umh / subme=9 / psy=1 / psy_rd=1.00:0.00 / mixed_ref=1 / me_range=24 / chroma_me=1 / trellis=2 / 8x8dct=1 / cqm=1 / deadzone=21,11 / fast_pskip=1 / chroma_qp_offset=-2 / threads=34 / lookahead_threads=2 / sliced_threads=0 / slices=4 / nr=0 / decimate=1 / interlaced=0 / minigop=1 / stitchable=1 / constrained_intra=0 / bframes=2 / b_pyramid=0 / b_adapt=2 / b_bias=0 / direct=3 / weightb=1 / open_gop=1 / weightp=1 / keyint=24 / keyint_min=1 / scenecut=40 / intra_refresh=0 / rc_lookahead=24 / rc=2pass / mbtree=1 / bitrate=18000 / ratetol=1.0 / qcomp=0.60 / qpmin=3 / qpmax=69 / qpstep=4 / cplxblur=20.0 / qblur=0.5 / vbv_maxrate=30000 / vbv_bufsize=30000 / nal_hrd=vbr / filler=0 / ip_ratio=1.40 / aq=1:1.00
Язык : English
Default : Да
Forced : Нет
Цветовой диапазон : Limited
Основные цвета : BT.709
Характеристики трансфера : BT.709
Коэффициенты матрицы : BT.709

Аудио #1
Идентификатор : 2
Формат : AC-3
Формат/Информация : Audio Coding 3
Коммерческое название : Dolby Digital
Идентификатор кодека : A_AC3
Продолжительность : 1 ч. 37 м.
Вид битрейта : Постоянный
Битрейт : 384 Кбит/сек
Каналы : 6 каналов
ChannelLayout : L R C LFE Ls Rs
Частота : 48,0 КГц
Частота кадров : 31,250 кадров/сек (1536 SPF)
Битовая глубина : 16 бит
Метод сжатия : С потерями
Размер потока : 267 Мбайт (2%)
Заголовок : iTunes
Язык : Russian
ServiceKind/String : Complete Main
Default : Да
Forced : Да

Аудио #2
Идентификатор : 3
Формат : DTS XLL
Формат/Информация : Digital Theater Systems
Коммерческое название : DTS-HD Master Audio
Идентификатор кодека : A_DTS
Продолжительность : 1 ч. 37 м.
Вид битрейта : Переменный
Битрейт : 1821 Кбит/сек
Каналы : 6 каналов
ChannelLayout : C L R Ls Rs LFE
Частота : 48,0 КГц
Частота кадров : 93,750 кадра/сек (512 SPF)
Битовая глубина : 16 бит
Метод сжатия : Без потерь
Размер потока : 1,24 Гбайт (9%)
Заголовок : Original
Язык : English
Default : Нет
Forced : Нет

Текст
Идентификатор : 4
Формат : UTF-8
Идентификатор кодека : S_TEXT/UTF8
Идентификатор кодека/Информация : UTF-8 Plain Text
Продолжительность : 1 ч. 30 м.
Битрейт : 66 бит/сек
ElementCount : 1201
Размер потока : 43,6 Кбайт (0%)
Заголовок : Full
Язык : English
Default : Нет
Forced : Нет

Меню
00:00:00.000 : en:Chapter 1
00:09:05.000 : en:Chapter 2
00:15:57.582 : en:Chapter 3
00:23:20.874 : en:Chapter 4
00:32:24.332 : en:Chapter 5
00:44:50.916 : en:Chapter 6
00:50:41.707 : en:Chapter 7
01:00:24.291 : en:Chapter 8
01:06:35.999 : en:Chapter 9
01:13:53.832 : en:Chapter 10
01:21:12.291 : en:Chapter 11
01:31:31.457 : en:Chapter 12

pb.wtf



Скачать Обратная связь через торрент https://c.radikal.ru/c25/2005/82/b3ab06ca53c1.jpg Скачать фильм Обратная связь через торрент бесплантно в хорошем качестве Описание: Популярный журналист ведёт ночную радиопрограмму под названием «Суровая реальность». Он заработал репутацию на резкой манере ... 10 10 4
Торрент: Зарегистрирован [2020-05-24 21:15] · скачан: 25 раз
Статус: √ проверено
Размер: 13.74 GB
Как cкачать? Как скачать Обратная связь через торрент | qTorrent

% Раздел Тема Автор DL S | L
Фильмы 2019-2020 [DVDrip, WEB-DLRip, HDrip] (DUB, MVO) [ 746 MB ] Обратная связь / Feedback [2019 HDRip] bober100 Скачать
2 | 0
Фильмы [HD 720p, 1080p] (Хороший звук DUB, MVO) [ 7.18 GB ] Обратная связь / Feedback [2019 BDRip 1080p] bober100 Скачать
1 | 0
Фильмы [HD 720p, 1080p] (Хороший звук DUB, MVO) [ 3.41 GB ] Обратная связь / Feedback [2019 BDRip 720p] bober100 Скачать
1 | 0
Фильмы 2019-2020 [DVDrip, WEB-DLRip, HDrip] (DUB, MVO) [ 1.46 GB ] Обратная связь / Feedback [2019 BDRip] bober100 Скачать
3 | 0

28-11-2019 20:33  

Отключить всю рекламу на сайте

    Дорогой пользователь! Огромная просьба, поблагодарите релизера, оцените раздачу и оставьте свои комментарий, если Вы скачали Обратная связь через торрент бесплатно! Внесите свою лепту в развитие PiratBit!
    Комментировать посты могут только пользователи прошедшие не сложную регистрацию
    Показать сообщения:    

    Обратная связь через торрент
    Скачать бесплатно Обратная связь
    Обратная связь скачать торрент
    Обратная связь смотреть онлайн
    Cкачать фильм Обратная связь бесплатно
    Обратная связь скачать торрент в хорошем качестве
    Обратная связь смотреть онлайн бесплатно в хорошем качестве


    Вы не можете начинать темы
    Вы не можете отвечать на сообщения
    Вы не можете редактировать свои сообщения
    Вы не можете удалять свои сообщения
    Вы не можете голосовать в опросах
    Вы не можете прикреплять файлы к сообщениям
    Вы можете скачивать файлы