Ссылка на приватное зеркало нашего сайта всего за 1$. Внимание количество ограничено!!!

2 сезон

iTunes

1 сезон

1

iTunes

iTunes

iTunes

1 сезон

RePack

30

ИГРА 18+

pack

ВАЖНО

!!Акция!!

Alien_RageХит недели

RePack

MK11
pack

Забери бонус

RePack

jed

!!Акция!!

Alien_Rage

RePack

fifa19

RePack

Assassins Creed: Odyssey

RePack

NEED FOR SPEED™ PAYBACK

4 сезон

9 сезон

Бесстыжие 9 сезон

Все сериалы

все сериалы на PB.wtf

RePack

FAR CRY 5
  

Чарли / Сезон: 1 / Серии: 1-12 из 12 (Дмитрий Лактионов) [2014, Комедия, HDTVRip 720p] pb.wtf

Чарли через торрент pb.wtf

Размер: 7.78 GB | Добавлен: 4 мес. 27 д. назад | Торрент скачан:8 раз
Скачать  

24-05-2020 21:41 Чарли Скачать торрент  

Чарли
Год выпуска: 2014
Страна: Украина
Жанр: Комедия
Продолжительность: ~ 00:27:00
Перевод: Не требуется
Субтитры: отсутствуют

Режиссер: Дмитрий Лактионов



В ролях: Максим Аверин, Максим Стецков, Любава Грешнова, Валентин Букин

Описание: Сюжет строится вокруг молодого человека по имени Никита, который ухаживает за хозяйкой пса по кличке Чарли. Пес и молодой человек не понравились друг другу с первого взгляда. Дело осложняется тем, что вместо собаки Никита видит человека в собачьем костюме, который с ним разговаривает.

Качество: HDTVRip 720p
Формат: MKV

Видео: 1280х720 (16:9), 25 fps, AVC MPEG-4 (x264), High@L4.1 ~ 3500 kbps , 0.201 bit/pixel
Аудио: 48.0 kHz, AC3 Dolby Digital, 2/0 (L,R) ch, ~ 192 kbps
скриншот  скриншот  скриншот  скриншот  

Общее
Уникальный идентификатор : 221531889019378406927421217378278587367 (0xA6A97D681D46C6A7ADA217BEB4603BE7)
Полное имя : C:\Charli.2014.HDTVRip.(720p).ExKinoRay\Charli.E01.2014.HDTVRip.(720p).ExKinoRay.mkv
Формат : Matroska
Версия формата : Version 4
Размер файла : 679 Мбайт
Продолжительность : 25 м. 41 с.
Общий поток : 3 694 Кбит/сек
Дата кодирования : UTC 2020-05-23 17:55:09
Программа кодирования : mkvmerge v6.9.1 ('Blue Panther') 64bit built on Apr 18 2014 18:23:38
Библиотека кодирования : libebml v1.3.0 + libmatroska v1.4.1

Видео
Идентификатор : 1
Формат : AVC
Формат/Информация : Advanced Video Codec
Профиль формата : High@L4.1
Настройки формата : CABAC / 9 Ref Frames
Параметр CABAC формата : Да
Параметр RefFrames формата : 9 кадров
Идентификатор кодека : V_MPEG4/ISO/AVC
Продолжительность : 25 м. 41 с.
Битрейт : 3 500 Кбит/сек
Ширина : 1 280 пикселей
Высота : 720 пикселей
Соотношение сторон : 16:9
Режим частоты кадров : Постоянный
Частота кадров : 25,000 кадров/сек
Цветовое пространство : YUV
Субдискретизация насыщенности : 4:2:0
Битовая глубина : 8 бит
Тип развёртки : Прогрессивная
Бит/(Пиксели*Кадры) : 0.152
Размер потока : 630 Мбайт (93%)
Библиотека кодирования : x264 core 146 r2538 121396c
Настройки программы : cabac=1 / ref=9 / deblock=1:-3:-3 / analyse=0x3:0x113 / me=umh / subme=11 / psy=1 / psy_rd=1.00:0.20 / mixed_ref=1 / me_range=32 / chroma_me=1 / trellis=2 / 8x8dct=1 / cqm=0 / deadzone=21,11 / fast_pskip=1 / chroma_qp_offset=-3 / threads=24 / lookahead_threads=10 / sliced_threads=0 / nr=0 / decimate=0 / interlaced=0 / bluray_compat=0 / constrained_intra=0 / bframes=10 / b_pyramid=2 / b_adapt=2 / b_bias=0 / direct=3 / weightb=1 / open_gop=0 / weightp=2 / keyint=250 / keyint_min=25 / scenecut=40 / intra_refresh=0 / rc_lookahead=60 / rc=2pass / mbtree=1 / bitrate=3500 / ratetol=1.0 / qcomp=0.60 / qpmin=0 / qpmax=69 / qpstep=4 / cplxblur=20.0 / qblur=0.5 / vbv_maxrate=14000 / vbv_bufsize=14000 / nal_hrd=none / filler=0 / ip_ratio=1.40 / aq=3:1.40
Default : Нет
Forced : Нет
Цветовой диапазон : Limited
Основные цвета : BT.709
Характеристики трансфера : BT.709
Коэффициенты матрицы : BT.709
Duration_Source : General_Duration

Аудио
Идентификатор : 2
Формат : AC-3
Формат/Информация : Audio Coding 3
Коммерческое название : Dolby Digital
Идентификатор кодека : A_AC3
Продолжительность : 25 м. 41 с.
Вид битрейта : Постоянный
Битрейт : 192 Кбит/сек
Каналы : 2 канала
Channel layout : L R
Частота : 48,0 КГц
Частота кадров : 31,250 кадров/сек (1536 SPF)
Метод сжатия : С потерями
Размер потока : 35,3 Мбайт (5%)
Язык : Russian
Service kind : Complete Main
Default : Да
Forced : Да
Duration_Source : General_Duration

pb.wtf



Скачать Чарли через торрент https://img11.lostpic.net/2020/05/23/444daf21000a25098ee55e10162a16fa.jpg Скачать фильм Чарли через торрент бесплантно в хорошем качестве Описание: Сюжет строится вокруг молодого человека по имени Никита, который ухаживает за хозяйкой пса по кличке Чарли. Пес и молодой человек ... 10 10 2
Торрент: Зарегистрирован [2020-05-24 21:41] · скачан: 8 раз
Статус: √ проверено
Размер: 7.78 GB
Как cкачать? Как скачать Чарли через торрент | qTorrent

% Раздел Тема Автор DL S | L
Наши сериалы [ 4.62 GB ] Чарли / Сезон: 1 / Серии: 1-12 из 12 [2014 HDTVRip-AVC] bober100 Скачать
1 | 0
Наши сериалы [ 16.7 GB ] Чарли / Сезон: 1 / Серии: 1-12 из 12 [2014 HDTV 1080i] bober100 Скачать
1 | 0
Наши сериалы [ 4.1 GB ] Чарли / Сезон: 1 / Серии: 1-12 из 12 [2014 HDTVRip] bober100 Скачать
1 | 0
Мультсериалы [ 410 MB ] Трон: Восстание / TRON: Uprising / Сезон: 1 Серии: 1 из ?? / [2012 мультфильм WEB-DLRip DVO] Newton5 Скачать
1 | 0

28-11-2019 20:33  

Отключить всю рекламу на сайте

25-05-2020 11:17 Чарли Скачать торрент  

чую pb.wtf



    Дорогой пользователь! Огромная просьба, поблагодарите релизера, оцените раздачу и оставьте свои комментарий, если Вы скачали Чарли через торрент бесплатно! Внесите свою лепту в развитие PiratBit!
    Комментировать посты могут только пользователи прошедшие не сложную регистрацию
    Показать сообщения:    

    Чарли через торрент
    Скачать бесплатно Чарли
    Чарли скачать торрент
    Чарли смотреть онлайн
    Cкачать фильм Чарли бесплатно
    Чарли скачать торрент в хорошем качестве
    Чарли смотреть онлайн бесплатно в хорошем качестве


    Вы не можете начинать темы
    Вы не можете отвечать на сообщения
    Вы не можете редактировать свои сообщения
    Вы не можете удалять свои сообщения
    Вы не можете голосовать в опросах
    Вы не можете прикреплять файлы к сообщениям
    Вы можете скачивать файлы