Ссылка на приватное зеркало нашего сайта всего за 1$. Внимание количество ограничено!!!

2 сезон

iTunes

1 сезон

1

2 сезон

2 сезон

iTunes

1 сезон

RePack

30

Ultimate

ВАЖНО

ИГРА 18+

pack

RePack

MK11
pack

Забери бонус

RePack

jed

!!Акция!!

Alien_Rage

RePack

fifa19

RePack

Assassins Creed: Odyssey

RePack

NEED FOR SPEED™ PAYBACK

4 сезон

9 сезон

Бесстыжие 9 сезон

Все сериалы

все сериалы на PB.wtf

RePack

FAR CRY 5
  

Смертельное оружие: Квадрология / Lethal Weapon: Collection (Ричард Доннер)[1987, 1989, 1992, 1998, США, боевик, триллер, криминал, BDRip 720p / 60fps , Дубляж] от R.G. HD-Films pb.wtf

Смертельное оружие: Квадрология через торрент pb.wtf

Раздают: 1 [ 0 KB/s ]
Размер: 16.25 GB | Добавлен: 6 мес. назад | Торрент скачан:63 раза
Скачать  

25-05-2020 13:03 Смертельное оружие: Квадрология Скачать торрент  

Смертельное оружие: Квадрология / Lethal Weapon: Collection
Смертельное оружие / Lethal Weapon
Год выпуска: : 1987
Страна: : США
Жанр: : боевик, триллер, комедия, криминал
Продолжительность: 01:49:37
Перевод: Дубляж
Субтитры: Russian, English

Режиссер: Ричард Доннер

Бюджет: $15 000 000
Премьера в мире: 6 марта 1987

rating

В ролях: Мэл Гибсон, Дэнни Гловер, Гэри Бьюзи, Митч Райан, Том Аткинс, Дарлен Лав, Трэйси Вульф, Джеки Суонсон, Дэймон Хайнс, Эбони Смит

Сюжет фильма: Лос-анджелесский полицейский Мартин Риггз смел и безрассуден, он буквально лезет под пули, не боясь за свою жизнь. Семьянин Роджер Мертаф старше и осторожнее. Двое полицейских, ветераны Вьетнама, расследуют дело, связанное с подозрительным самоубийством девушки. Нить поисков приводит их к торговцам наркотиками, которые также оказываются ветеранами вьетнамской войны, сплоченными в крепкую преступную организацию.


Качество видео: BDRip 720p / 60 FPS
Формат: MKV
Видео кодек: H.264
Аудио кодек: AC3
Видео : x264, 1280 x 720 ( 16:9 ), 5780 kbps, 60,000 fps, ( 0.105 bpp)
Аудио : Русский, AC-3, 48.0 KHz, 6 ch, 384 Kbps
Релиз от:

скриншот   скриншот   скриншот   скриншот   скриншот   скриншот  Автор рипа: slaventi-69
Общее
Уникальный идентификатор : 145338304880498913314763505047705143718 (0x6D5723AC0565C865817AA3E6ABF6C9A6)
Полное имя : F:\Lethal Weapon Quadrology\Lethal.Weapon.(1987).BDRip.720p.(60 Fps).mkv
Формат : Matroska
Версия формата : Version 4
Размер файла : 4,72 Гбайт
Продолжительность : 1 ч. 49 м.
Общий поток : 6168 Кбит/сек
Название фильма : Смертельное оружие / Lethal Weapon (1987) BDRip 720p (60 Fps)
Дата кодирования : UTC 2020-05-23 08:08:00
Программа кодирования : mkvmerge v35.0.0 ('All The Love In The World') 64-bit
Библиотека кодирования : libebml v1.3.9 + libmatroska v1.5.2

Видео
Идентификатор : 1
Формат : AVC
Формат/Информация : Advanced Video Codec
Профиль формата : High@L4.1
Настройки формата : CABAC / 8 Ref Frames
Параметр CABAC формата : Да
Параметр RefFrames формата : 8 кадров
Идентификатор кодека : V_MPEG4/ISO/AVC
Продолжительность : 1 ч. 49 м.
Битрейт : 5780 Кбит/сек
Ширина : 1280 пикселей
Высота : 720 пикселей
Соотношение сторон : 16:9
Режим частоты кадров : Постоянный
Частота кадров : 60,000 кадров/сек
Цветовое пространство : YUV
Субдискретизация насыщенности : 4:2:0
Битовая глубина : 8 бит
Тип развёртки : Прогрессивная
Бит/(Пиксели*Кадры) : 0.105
Размер потока : 4,42 Гбайт (94%)
Заголовок : slaventi-69 ( R.G. HD-Films | 60 fps )
Библиотека кодирования : x264 core 130 r2273 b3065e6
Настройки программы : cabac=1 / ref=8 / deblock=1:-1:-1 / analyse=0x3:0x133 / me=umh / subme=9 / psy=1 / psy_rd=1.00:0.00 / mixed_ref=1 / me_range=30 / chroma_me=1 / trellis=2 / 8x8dct=1 / cqm=0 / deadzone=21,11 / fast_pskip=0 / chroma_qp_offset=-2 / threads=10 / lookahead_threads=2 / sliced_threads=0 / nr=0 / decimate=1 / interlaced=0 / bluray_compat=0 / constrained_intra=0 / bframes=5 / b_pyramid=2 / b_adapt=2 / b_bias=0 / direct=2 / weightb=1 / open_gop=0 / weightp=2 / keyint=600 / keyint_min=23 / scenecut=40 / intra_refresh=0 / rc=crf / mbtree=0 / crf=18.5 / qcomp=0.60 / qpmin=0 / qpmax=69 / qpstep=4 / ip_ratio=1.40 / pb_ratio=1.30 / aq=1:1.00
Язык : English
Default : Да
Forced : Нет

Аудио
Идентификатор : 2
Формат : AC-3
Формат/Информация : Audio Coding 3
Коммерческое название : Dolby Digital
Идентификатор кодека : A_AC3
Продолжительность : 1 ч. 49 м.
Вид битрейта : Постоянный
Битрейт : 384 Кбит/сек
Каналы : 6 каналов
Channel layout : L R C LFE Ls Rs
Частота : 48,0 КГц
Частота кадров : 31,250 кадров/сек (1536 SPF)
Битовая глубина : 16 бит
Метод сжатия : С потерями
Размер потока : 301 Мбайт (6%)
Заголовок : Dub
Язык : Russian
ServiceKind/String : Complete Main
Default : Да
Forced : Нет

Текст #1
Идентификатор : 3
Формат : UTF-8
Идентификатор кодека : S_TEXT/UTF8
Идентификатор кодека/Информация : UTF-8 Plain Text
Продолжительность : 1 ч. 45 м.
Битрейт : 70 бит/сек
ElementCount : 1132
Размер потока : 55,0 Кбайт (0%)
Язык : Russian
Default : Нет
Forced : Нет

Текст #2
Идентификатор : 4
Формат : UTF-8
Идентификатор кодека : S_TEXT/UTF8
Идентификатор кодека/Информация : UTF-8 Plain Text
Продолжительность : 1 ч. 42 м.
Битрейт : 51 бит/сек
ElementCount : 1211
Размер потока : 38,7 Кбайт (0%)
Язык : English
Default : Нет
Forced : Нет

Меню
00:00:00.000 : :Chapter 1
00:04:26.099 : :Chapter 2
00:11:13.839 : :Chapter 3
00:14:53.601 : :Chapter 4
00:18:13.300 : :Chapter 5
00:23:05.008 : :Chapter 6
00:25:58.390 : :Chapter 7
00:28:36.047 : :Chapter 8
00:36:45.786 : :Chapter 9
00:42:59.577 : :Chapter 10
00:54:12.707 : :Chapter 11
00:57:39.205 : :Chapter 12
01:03:44.237 : :Chapter 13
01:08:10.294 : :Chapter 14
01:10:25.930 : :Chapter 15
01:15:17.513 : :Chapter 16
01:23:47.522 : :Chapter 17
01:29:30.365 : :Chapter 18
01:36:55.476 : :Chapter 19
01:38:54.929 : :Chapter 20
01:43:03.010 : :Chapter 21
01:43:48.222 : :Chapter 22
01:44:45.904 : :Chapter 23
01:49:36.778 : :Chapter 24

Просьба к переливающим на другие сайты, в оформлении указывайте пожалуйста авторство группы R.G. HD-Films
Смертельное оружие 2/ Lethal Weapon 2
Год выпуска: : 1989
Страна: : США
Жанр: : боевик, триллер, комедия, криминал
Продолжительность: 01:54:27
Перевод: Дубляж
Субтитры: Russian, English

Режиссер: Ричард Доннер

Бюджет: $28 000 000
Премьера в мире: 5 июля 1989

rating

В ролях: Мэл Гибсон, Дэнни Гловер, Джо Пеши, Джосс Экланд, Деррик О`Коннор, Пэтси Кенсит, Дарлен Лав, Трэйси Вульф, Steve Kahan, Марк Ролстон, Дженет Голдштейн, Дин Норрис, Нестор Серрано, Филип Суриано, Гранд Л. Буш, Тони Каррейро, Дэймон Хайнс, Эбони Смит, Аллан Дин Мур, Джек МакГи

Сюжет фильма: Мартин и его напарник Роджер напали на след могущественной наркомафии, которой заправляли выходцы из Южно-Африканского Союза. Полиции удалось арестовать одного из мошенников, помогавших мафиозо отмывать их грязные деньги.
Этого важного свидетеля поручили охранять Мартину и Роджеру. Сами бандиты были неуязвимы, так как пользовались дипломатической неприкосновенностью…


Качество видео: BDRip 720p / 60 FPS
Формат: MKV
Видео кодек: H.264
Аудио кодек: AC3
Видео : x264, 1280 x 536 ( 2,40:1 ), 4099 kbps, 60,000 fps, ( 0.100 bpp)
Аудио : Русский, AC-3, 48.0 KHz, 6 ch, 384 Kbps
Релиз от:

скриншот   скриншот   скриншот   скриншот   скриншот   скриншот  Автор рипа: slaventi-69
Общее
Уникальный идентификатор : 112121270742809105556723865344598980498 (0x5459C5721F8CB239E8769B4DAFD9B792)
Полное имя : F:\Lethal Weapon Quadrology\Lethal.Weapon.2.(1989).BDRip.720p.(60 Fps).mkv
Формат : Matroska
Версия формата : Version 4
Размер файла : 3,58 Гбайт
Продолжительность : 1 ч. 54 м.
Общий поток : 4487 Кбит/сек
Название фильма : Смертельное оружие 2 / Lethal Weapon 2 (1989) BDRip 720p (60 Fps)
Дата кодирования : UTC 2020-05-23 08:28:30
Программа кодирования : mkvmerge v35.0.0 ('All The Love In The World') 64-bit
Библиотека кодирования : libebml v1.3.9 + libmatroska v1.5.2

Видео
Идентификатор : 1
Формат : AVC
Формат/Информация : Advanced Video Codec
Профиль формата : High@L4.1
Настройки формата : CABAC / 8 Ref Frames
Параметр CABAC формата : Да
Параметр RefFrames формата : 8 кадров
Идентификатор кодека : V_MPEG4/ISO/AVC
Продолжительность : 1 ч. 54 м.
Битрейт : 4099 Кбит/сек
Ширина : 1280 пикселей
Высота : 536 пикселей
Соотношение сторон : 2,40:1
Режим частоты кадров : Постоянный
Частота кадров : 60,000 кадров/сек
Цветовое пространство : YUV
Субдискретизация насыщенности : 4:2:0
Битовая глубина : 8 бит
Тип развёртки : Прогрессивная
Бит/(Пиксели*Кадры) : 0.100
Размер потока : 3,27 Гбайт (91%)
Заголовок : slaventi-69 ( R.G. HD-Films | 60 fps )
Библиотека кодирования : x264 core 130 r2273 b3065e6
Настройки программы : cabac=1 / ref=8 / deblock=1:-1:-1 / analyse=0x3:0x133 / me=umh / subme=9 / psy=1 / psy_rd=1.00:0.00 / mixed_ref=1 / me_range=30 / chroma_me=1 / trellis=2 / 8x8dct=1 / cqm=0 / deadzone=21,11 / fast_pskip=0 / chroma_qp_offset=-2 / threads=10 / lookahead_threads=2 / sliced_threads=0 / nr=0 / decimate=1 / interlaced=0 / bluray_compat=0 / constrained_intra=0 / bframes=5 / b_pyramid=2 / b_adapt=2 / b_bias=0 / direct=2 / weightb=1 / open_gop=0 / weightp=2 / keyint=600 / keyint_min=23 / scenecut=40 / intra_refresh=0 / rc=crf / mbtree=0 / crf=18.0 / qcomp=0.60 / qpmin=0 / qpmax=69 / qpstep=4 / ip_ratio=1.40 / pb_ratio=1.30 / aq=1:1.00
Язык : English
Default : Да
Forced : Нет

Аудио
Идентификатор : 2
Формат : AC-3
Формат/Информация : Audio Coding 3
Коммерческое название : Dolby Digital
Идентификатор кодека : A_AC3
Продолжительность : 1 ч. 54 м.
Вид битрейта : Постоянный
Битрейт : 384 Кбит/сек
Каналы : 6 каналов
Channel layout : L R C LFE Ls Rs
Частота : 48,0 КГц
Частота кадров : 31,250 кадров/сек (1536 SPF)
Битовая глубина : 16 бит
Метод сжатия : С потерями
Размер потока : 314 Мбайт (9%)
Заголовок : Dub
Язык : Russian
ServiceKind/String : Complete Main
Default : Да
Forced : Нет

Текст #1
Идентификатор : 3
Формат : UTF-8
Идентификатор кодека : S_TEXT/UTF8
Идентификатор кодека/Информация : UTF-8 Plain Text
Продолжительность : 1 ч. 53 м.
Битрейт : 70 бит/сек
ElementCount : 1270
Размер потока : 58,4 Кбайт (0%)
Язык : Russian
Default : Нет
Forced : Нет

Текст #2
Идентификатор : 4
Формат : UTF-8
Идентификатор кодека : S_TEXT/UTF8
Идентификатор кодека/Информация : UTF-8 Plain Text
Продолжительность : 1 ч. 49 м.
Битрейт : 50 бит/сек
ElementCount : 1329
Размер потока : 40,7 Кбайт (0%)
Язык : English
Default : Нет
Forced : Нет

Меню
00:00:00.000 : :Chapter 1
00:07:51.387 : :Chapter 2
00:10:00.266 : :Chapter 3
00:11:20.262 : :Chapter 4
00:12:58.903 : :Chapter 5
00:16:26.110 : :Chapter 6
00:18:21.141 : :Chapter 7
00:21:42.009 : :Chapter 8
00:23:42.003 : :Chapter 9
00:25:56.846 : :Chapter 10
00:30:25.156 : :Chapter 11
00:33:51.821 : :Chapter 12
00:35:59.448 : :Chapter 13
00:39:39.794 : :Chapter 14
00:42:38.430 : :Chapter 15
00:43:58.927 : :Chapter 16
00:45:34.064 : :Chapter 17
00:47:12.120 : :Chapter 18
00:48:32.409 : :Chapter 19
00:50:32.404 : :Chapter 20
00:51:44.476 : :Chapter 21
00:55:07.220 : :Chapter 22
01:00:13.526 : :Chapter 23
01:06:37.410 : :Chapter 24
01:07:56.489 : :Chapter 25
01:12:04.111 : :Chapter 26
01:15:03.540 : :Chapter 27
01:19:24.926 : :Chapter 28
01:24:13.214 : :Chapter 29
01:26:41.029 : :Chapter 30
01:28:06.364 : :Chapter 31
01:30:30.007 : :Chapter 32
01:33:54.629 : :Chapter 33
01:37:22.086 : :Chapter 34
01:41:08.520 : :Chapter 35
01:43:15.147 : :Chapter 36
01:45:36.121 : :Chapter 37
01:46:36.598 : :Chapter 38
01:49:30.188 : :Chapter 39
01:54:26.901 : :Chapter 40

Просьба к переливающим на другие сайты, в оформлении указывайте пожалуйста авторство группы R.G. HD-Films
Смертельное оружие 3/ Lethal Weapon 3
Год выпуска: : 1992
Страна: : США
Жанр: : боевик, триллер, комедия, криминал
Продолжительность: 01:57:53
Перевод: Дубляж
Субтитры: Russian, English

Режиссер: Ричард Доннер

Бюджет: $35 000 000
Премьера в мире: 11 мая 1992

rating

В ролях: Мэл Гибсон, Дэнни Гловер, Джо Пеши, Рене Руссо, Стюарт Уилсон, Стив Кэхэн, Дарлен Лав, Трэйси Вульф, Дэймон Хайнс, Эбони Смит

Сюжет фильма: Третий фильм о неустрашимом полицейском Риггсе. На этот раз Мартин и его напарник Роджер сталкиваются с гангстерами, похищающими оружие со склада полиции. Преступную группу, за которой тянется длинный кровавый след, возглавляет бывший сержант Джек Тревис. Найти улики против «грязного» полицейского напарникам помогает Лорна Коул - решительная женщина-полицейский, которая не останавливается перед лицом опасности и уверенно вступает в схватку с противниками...

Качество видео: BDRip 720p / 60 FPS
Формат: MKV
Видео кодек: H.264
Аудио кодек: AC3
Видео : x264, 1280 x 536 ( 2,40:1 ), 4037 kbps, 60,000 fps, ( 0.098 bpp)
Аудио : Русский, AC-3, 48.0 KHz, 6 ch, 384 Kbps
Релиз от:

скриншот   скриншот   скриншот   скриншот   скриншот   скриншот  Автор рипа: slaventi-69
Общее
Уникальный идентификатор : 283031665515043093982333945172887644498 (0xD4EDEA7DD49CFC4F10D2A83A8924A952)
Полное имя : F:\Lethal Weapon Quadrology\Lethal.Weapon.3.(1992).BDRip.720p.(60 Fps).mkv
Формат : Matroska
Версия формата : Version 4
Размер файла : 3,64 Гбайт
Продолжительность : 1 ч. 57 м.
Общий поток : 4422 Кбит/сек
Название фильма : Смертельное оружие 3 / Lethal Weapon 3 (1992) BDRip 720p (60 Fps)
Дата кодирования : UTC 2020-05-23 08:43:21
Программа кодирования : mkvmerge v35.0.0 ('All The Love In The World') 64-bit
Библиотека кодирования : libebml v1.3.9 + libmatroska v1.5.2

Видео
Идентификатор : 1
Формат : AVC
Формат/Информация : Advanced Video Codec
Профиль формата : High@L4.1
Настройки формата : CABAC / 8 Ref Frames
Параметр CABAC формата : Да
Параметр RefFrames формата : 8 кадров
Идентификатор кодека : V_MPEG4/ISO/AVC
Продолжительность : 1 ч. 57 м.
Битрейт : 4037 Кбит/сек
Ширина : 1280 пикселей
Высота : 536 пикселей
Соотношение сторон : 2,40:1
Режим частоты кадров : Постоянный
Частота кадров : 60,000 кадров/сек
Цветовое пространство : YUV
Субдискретизация насыщенности : 4:2:0
Битовая глубина : 8 бит
Тип развёртки : Прогрессивная
Бит/(Пиксели*Кадры) : 0.098
Размер потока : 3,32 Гбайт (91%)
Заголовок : slaventi-69 ( R.G. HD-Films | 60 fps )
Библиотека кодирования : x264 core 130 r2273 b3065e6
Настройки программы : cabac=1 / ref=8 / deblock=1:-1:-1 / analyse=0x3:0x133 / me=umh / subme=9 / psy=1 / psy_rd=1.00:0.00 / mixed_ref=1 / me_range=30 / chroma_me=1 / trellis=2 / 8x8dct=1 / cqm=0 / deadzone=21,11 / fast_pskip=0 / chroma_qp_offset=-2 / threads=10 / lookahead_threads=2 / sliced_threads=0 / nr=0 / decimate=1 / interlaced=0 / bluray_compat=0 / constrained_intra=0 / bframes=5 / b_pyramid=2 / b_adapt=2 / b_bias=0 / direct=2 / weightb=1 / open_gop=0 / weightp=2 / keyint=600 / keyint_min=23 / scenecut=40 / intra_refresh=0 / rc=crf / mbtree=0 / crf=19.0 / qcomp=0.60 / qpmin=0 / qpmax=69 / qpstep=4 / ip_ratio=1.40 / pb_ratio=1.30 / aq=1:1.00
Язык : English
Default : Да
Forced : Нет

Аудио
Идентификатор : 2
Формат : AC-3
Формат/Информация : Audio Coding 3
Коммерческое название : Dolby Digital
Идентификатор кодека : A_AC3
Продолжительность : 1 ч. 57 м.
Вид битрейта : Постоянный
Битрейт : 384 Кбит/сек
Каналы : 6 каналов
Channel layout : L R C LFE Ls Rs
Частота : 48,0 КГц
Частота кадров : 31,250 кадров/сек (1536 SPF)
Битовая глубина : 16 бит
Метод сжатия : С потерями
Размер потока : 323 Мбайт (9%)
Заголовок : Dub
Язык : Russian
ServiceKind/String : Complete Main
Default : Да
Forced : Нет

Текст #1
Идентификатор : 3
Формат : UTF-8
Идентификатор кодека : S_TEXT/UTF8
Идентификатор кодека/Информация : UTF-8 Plain Text
Продолжительность : 1 ч. 56 м.
Битрейт : 113 бит/сек
ElementCount : 1752
Размер потока : 97,1 Кбайт (0%)
Язык : Russian
Default : Нет
Forced : Нет

Текст #2
Идентификатор : 4
Формат : UTF-8
Идентификатор кодека : S_TEXT/UTF8
Идентификатор кодека/Информация : UTF-8 Plain Text
Продолжительность : 1 ч. 56 м.
Битрейт : 83 бит/сек
ElementCount : 1972
Размер потока : 70,9 Кбайт (0%)
Язык : English
Default : Нет
Forced : Нет

Меню
00:00:00.000 : :Chapter 1
00:01:39.182 : :Chapter 2
00:07:48.676 : :Chapter 3
00:10:05.062 : :Chapter 4
00:15:11.744 : :Chapter 5
00:20:08.832 : :Chapter 6
00:22:06.450 : :Chapter 7
00:24:36.975 : :Chapter 8
00:29:16.421 : :Chapter 9
00:37:00.593 : :Chapter 10
00:43:34.028 : :Chapter 11
00:49:31.551 : :Chapter 12
00:53:44.262 : :Chapter 13
00:56:17.791 : :Chapter 14
00:58:06.483 : :Chapter 15
01:00:42.347 : :Chapter 16
01:05:49.111 : :Chapter 17
01:11:41.422 : :Chapter 18
01:14:59.745 : :Chapter 19
01:18:15.982 : :Chapter 20
01:22:29.361 : :Chapter 21
01:24:37.197 : :Chapter 22
01:27:21.945 : :Chapter 23
01:29:59.268 : :Chapter 24
01:34:44.178 : :Chapter 25
01:37:15.329 : :Chapter 26
01:42:34.606 : :Chapter 27
01:46:24.628 : :Chapter 28
01:48:26.458 : :Chapter 29
01:51:44.030 : :Chapter 30
01:57:05.018 : :Chapter 31
01:57:52.857 : :Chapter 32

Просьба к переливающим на другие сайты, в оформлении указывайте пожалуйста авторство группы R.G. HD-Films
Смертельное оружие 4/ Lethal Weapon 4
Год выпуска: : 1998
Страна: : США
Жанр: : боевик, триллер, комедия, криминал
Продолжительность: 02:07:23
Перевод: Дубляж
Субтитры: Russian, English

Режиссер: Ричард Доннер

Бюджет: $140 000 000
Премьера в мире: 7 июля 1998

rating

В ролях: Мэл Гибсон, Дэнни Гловер, Джо Пеши, Рене Руссо, Крис Рок, Джет Ли, Стив Кэхэн, Ким Чан, Дарлен Лав, Трэйси Вульф

Сюжет фильма: Главный герой Риггз ждет, как он надеется, сына от Лорны Коул, а Роджер — внука. Оба уже ощущают возраст, им дали звания капитанов, но сердца их все еще молоды и без приключений не могут. В этом 4-м по счету фильме их дорожки случайно пересеклись с китайскими мафиози, печатающими фальшивые деньги.
В фильме есть юмор, множество перестрелок, драк, погонь, головокружительных трюков. Взрываются бензовозы, машины, корабли садятся на мель, Джет Ли показывает свое мастерство в восточных единоборствах.


Качество видео: BDRip 720p / 60 FPS
Формат: MKV
Видео кодек: H.264
Аудио кодек: AC3
Видео : x264, 1280 x 536 ( 2,40:1 ), 4460 kbps, 60,000 fps, ( 0.108 bpp)
Аудио : Русский, AC-3, 48.0 KHz, 6 ch, 384 Kbps
Релиз от:

скриншот   скриншот   скриншот   скриншот   скриншот   скриншот  Автор рипа: slaventi-69
Общее
Уникальный идентификатор : 217169529164631068304003921355349593538 (0xA3615475CFCC22B6BB24E04E50E68DC2)
Полное имя : F:\Lethal Weapon Quadrology\Lethal.Weapon.4.(1998).BDRip.720p.(60 Fps).mkv
Формат : Matroska
Версия формата : Version 4
Размер файла : 4,31 Гбайт
Продолжительность : 2 ч. 7 м.
Общий поток : 4848 Кбит/сек
Название фильма : Смертельное оружие 4 / Lethal Weapon 4 (1998) BDRip 720p (60 Fps)
Дата кодирования : UTC 2020-05-23 16:17:53
Программа кодирования : mkvmerge v12.0.0 ('Trust / Lust') 64bit
Библиотека кодирования : libebml v1.3.4 + libmatroska v1.4.5

Видео
Идентификатор : 1
Формат : AVC
Формат/Информация : Advanced Video Codec
Профиль формата : High@L4.1
Настройки формата : CABAC / 8 Ref Frames
Параметр CABAC формата : Да
Параметр RefFrames формата : 8 кадров
Идентификатор кодека : V_MPEG4/ISO/AVC
Продолжительность : 2 ч. 7 м.
Битрейт : 4460 Кбит/сек
Ширина : 1280 пикселей
Высота : 536 пикселей
Соотношение сторон : 2,40:1
Режим частоты кадров : Постоянный
Частота кадров : 60,000 кадров/сек
Цветовое пространство : YUV
Субдискретизация насыщенности : 4:2:0
Битовая глубина : 8 бит
Тип развёртки : Прогрессивная
Бит/(Пиксели*Кадры) : 0.108
Размер потока : 3,96 Гбайт (92%)
Заголовок : slaventi-69 ( R.G. HD-Films | 60 fps )
Библиотека кодирования : x264 core 130 r2273 b3065e6
Настройки программы : cabac=1 / ref=8 / deblock=1:0:0 / analyse=0x3:0x133 / me=umh / subme=9 / psy=1 / psy_rd=1.00:0.00 / mixed_ref=1 / me_range=30 / chroma_me=1 / trellis=2 / 8x8dct=1 / cqm=0 / deadzone=21,11 / fast_pskip=0 / chroma_qp_offset=-2 / threads=10 / lookahead_threads=2 / sliced_threads=0 / nr=0 / decimate=1 / interlaced=0 / bluray_compat=0 / constrained_intra=0 / bframes=5 / b_pyramid=2 / b_adapt=2 / b_bias=0 / direct=2 / weightb=1 / open_gop=0 / weightp=2 / keyint=600 / keyint_min=23 / scenecut=40 / intra_refresh=0 / rc=crf / mbtree=0 / crf=18.3 / qcomp=0.60 / qpmin=0 / qpmax=69 / qpstep=4 / ip_ratio=1.40 / pb_ratio=1.30 / aq=1:1.00
Язык : English
Default : Да
Forced : Нет

Аудио
Идентификатор : 2
Формат : AC-3
Формат/Информация : Audio Coding 3
Коммерческое название : Dolby Digital
Идентификатор кодека : A_AC3
Продолжительность : 2 ч. 7 м.
Вид битрейта : Постоянный
Битрейт : 384 Кбит/сек
Каналы : 6 каналов
Channel layout : L R C LFE Ls Rs
Частота : 48,0 КГц
Частота кадров : 31,250 кадров/сек (1536 SPF)
Битовая глубина : 16 бит
Метод сжатия : С потерями
Размер потока : 350 Мбайт (8%)
Заголовок : Dub
Язык : Russian
ServiceKind/String : Complete Main
Default : Да
Forced : Нет

Текст #1
Идентификатор : 3
Формат : UTF-8
Идентификатор кодека : S_TEXT/UTF8
Идентификатор кодека/Информация : UTF-8 Plain Text
Продолжительность : 1 ч. 59 м.
Битрейт : 97 бит/сек
ElementCount : 1766
Размер потока : 85,5 Кбайт (0%)
Язык : Russian
Default : Нет
Forced : Нет

Текст #2
Идентификатор : 4
Формат : UTF-8
Идентификатор кодека : S_TEXT/UTF8
Идентификатор кодека/Информация : UTF-8 Plain Text
Продолжительность : 1 ч. 59 м.
Битрейт : 69 бит/сек
ElementCount : 1856
Размер потока : 61,4 Кбайт (0%)
Язык : English
Default : Нет
Forced : Нет

Меню
00:00:00.000 : :Chapter 1
00:01:52.195 : :Chapter 2
00:03:51.606 : :Chapter 3
00:05:54.604 : :Chapter 4
00:09:47.587 : :Chapter 5
00:13:40.110 : :Chapter 6
00:15:31.931 : :Chapter 7
00:17:28.964 : :Chapter 8
00:20:32.439 : :Chapter 9
00:21:55.355 : :Chapter 10
00:25:28.109 : :Chapter 11
00:27:50.293 : :Chapter 12
00:32:20.480 : :Chapter 13
00:35:42.515 : :Chapter 14
00:38:17.962 : :Chapter 15
00:40:15.412 : :Chapter 16
00:43:04.123 : :Chapter 17
00:46:27.868 : :Chapter 18
00:49:28.507 : :Chapter 19
00:51:19.659 : :Chapter 20
00:52:14.965 : :Chapter 21
00:55:53.808 : :Chapter 22
00:58:45.396 : :Chapter 23
01:02:42.675 : :Chapter 24
01:06:32.780 : :Chapter 25
01:09:36.463 : :Chapter 26
01:11:34.206 : :Chapter 27
01:13:44.503 : :Chapter 28
01:15:37.449 : :Chapter 29
01:17:28.018 : :Chapter 30
01:20:01.505 : :Chapter 31
01:22:38.453 : :Chapter 32
01:27:29.202 : :Chapter 33
01:31:05.918 : :Chapter 34
01:33:03.035 : :Chapter 35
01:35:37.106 : :Chapter 36
01:38:03.919 : :Chapter 37
01:40:33.610 : :Chapter 38
01:43:51.475 : :Chapter 39
01:46:22.667 : :Chapter 40
01:47:29.985 : :Chapter 41
01:50:10.604 : :Chapter 42
01:53:53.368 : :Chapter 43
01:58:03.117 : :Chapter 44
02:00:15.208 : :Chapter 45
02:07:23.427 : :Chapter 46

Просьба к переливающим на другие сайты, в оформлении указывайте пожалуйста авторство группы R.G. HD-Films
pb.wtf



Скачать Смертельное оружие: Квадрология через торрент http://lostpic.net/images/ea14433ef6caac69155b4405eab76435.png Скачать фильм Смертельное оружие: Квадрология через торрент бесплантно в хорошем качестве В ролях: Мэл Гибсон, Дэнни Гловер, Гэри Бьюзи, Митч Райан, Том Аткинс, Дарлен Лав, Трэйси Вульф, Джеки Суонсон, Дэймон Хайнс, Эбони Смит ... 10 10 8
Info! Золотая раздача, скачанное не засчитывается.
Торрент: Зарегистрирован [2020-05-25 13:05] · скачан: 63 раз
Статус: √ проверено
Размер: 16.25 GB
Как cкачать? Как скачать Смертельное оружие: Квадрология через торрент | qTorrent

28-11-2019 20:33  

Отключить всю рекламу на сайте

25-05-2020 15:17 Смертельное оружие: Квадрология Скачать торрент  

Огромное Вам спасибо за труды, уважаемый Вы наш!!! Вы первый, кто сделал эти фильмы в таком качестве!!! Рэмбо, Чужие и Крепкие орехи уже давно сделаны и есть в сети, а вот к Гибсону и Гловеру так ни у кого руки не дошли. Нету слов для благодарности... Простое уважение к вашему труду. Thank You Very Much!!!!!!!pb.wtf



    Дорогой пользователь! Огромная просьба, поблагодарите релизера, оцените раздачу и оставьте свои комментарий, если Вы скачали Смертельное оружие: Квадрология через торрент бесплатно! Внесите свою лепту в развитие PiratBit!
    Комментировать посты могут только пользователи прошедшие не сложную регистрацию
    Показать сообщения:    

    Смертельное оружие: Квадрология через торрент
    Скачать бесплатно Смертельное оружие: Квадрология
    Смертельное оружие: Квадрология скачать торрент
    Смертельное оружие: Квадрология смотреть онлайн
    Cкачать фильм Смертельное оружие: Квадрология бесплатно
    Смертельное оружие: Квадрология скачать торрент в хорошем качестве
    Смертельное оружие: Квадрология смотреть онлайн бесплатно в хорошем качестве


    Вы не можете начинать темы
    Вы не можете отвечать на сообщения
    Вы не можете редактировать свои сообщения
    Вы не можете удалять свои сообщения
    Вы не можете голосовать в опросах
    Вы не можете прикреплять файлы к сообщениям
    Вы можете скачивать файлы