Ссылка на приватное зеркало нашего сайта всего за 1$. Внимание количество ограничено!!!

2 сезон

iTunes

1 сезон

1

iTunes

iTunes

iTunes

1 сезон

RePack

30

ИГРА 18+

pack

ВАЖНО

!!Акция!!

Alien_RageХит недели

RePack

MK11
pack

Забери бонус

RePack

jed

!!Акция!!

Alien_Rage

RePack

fifa19

RePack

Assassins Creed: Odyssey

RePack

NEED FOR SPEED™ PAYBACK

4 сезон

9 сезон

Бесстыжие 9 сезон

Все сериалы

все сериалы на PB.wtf

RePack

FAR CRY 5
  

Журавль в небе / Сезон: 1 / Серии: 1-12 из 12 (Сергей Комаров) [2020, Мелодрама, SATRip] pb.wtf

Журавль в небе через торрент pb.wtf

Размер: 7.03 GB | Добавлен: 4 мес. 16 д. назад | Торрент скачан:52 раза
Скачать  

25-05-2020 15:53 Журавль в небе Скачать торрент  

Журавль в небе
Год выпуска: 2020
Страна: Россия
Жанр: Мелодрама
Продолжительность: ~ 00:49:00
Субтитры: отсутствуют

Режиссер: Сергей Комаров (III)



В ролях: Мария Луговая, Владимир Потапов, Михаил Гаврилов (II), Филипп Горенштейн, Сергей Пускепалис, Ольга Кабо, Валентина Теличкина, Борис Невзоров, Игорь Филиппов, Никита Абдулов, Владимир Чуприков, Александр Волков (IV), Наталья Унгард, Татьяна Сомова, Юрий Оленников, Никита Григорьев, Лина Весёлкина

Описание: Фильм о нелёгкой, но головокружительной судьбе лётчика-испытателя Аси Солнцевой. Действие картины разворачивается в период с 1961 по 1983 годы - на историческом фоне создания «самолёта будущего»: первого в мире сверхзвукового пассажирского лайнера. Неземная любовь к мужчине всей её жизни, пилоту Юрию Громову, ведёт нашу героиню через все немыслимые преграды к воплощению ее мечты: летать вдвоём на чудо-«Журавле». Но обретёт ли она своё счастье?..

Качество: SATRip
Формат: AVI

Видео: 720x400 (16:9), 25 fps, XviD build 73 ~1500 kbps avg, 0.199 bit/pixel
Аудио: 48 kHz, MPEG Layer 3, 2 ch, ~192.00 kbps avg
скриншот  скриншот  скриншот  скриншот  

Общее
Полное имя : C:\Zhuravl.v.nebe.2020.XviD.SATRip.25Kuzmich\Zhuravl.v.nebe.e01.XviD.SATRip.25Kuzmich.avi
Формат : AVI
Формат/Информация : Audio Video Interleave
Размер файла : 600 Мбайт
Продолжительность : 49 м. 14 с.
Общий поток : 1703 Кбит/сек
Программа кодирования : VirtualDubMod 1.5.10.3 | www.virtualdub-fr.org || (build 2550/release)
Библиотека кодирования : VirtualDubMod build 2550/release

Видео
Идентификатор : 0
Формат : MPEG-4 Visual
Профиль формата : Advanced Simple@L5
Настройки формата : BVOP1
Параметр BVOP формата : 1
Параметр QPel формата : Нет
Параметр GMC формата : Без точки перехода
Параметр матрицы формата : Default (MPEG)
Идентификатор кодека : XVID
Идентификатор кодека/Подсказка : XviD
Продолжительность : 49 м. 14 с.
Битрейт : 1435 Кбит/сек
Ширина : 720 пикселей
Высота : 400 пикселей
Соотношение сторон : 16:9
Частота кадров : 25,000 кадров/сек
Цветовое пространство : YUV
Субдискретизация насыщенности : 4:2:0
Битовая глубина : 8 бит
Тип развёртки : Прогрессивная
Метод сжатия : С потерями
Бит/(Пиксели*Кадры) : 0.199
Размер потока : 505 Мбайт (84%)
Библиотека кодирования : XviD 73

Аудио
Идентификатор : 1
Формат : MPEG Audio
Версия формата : Version 1
Профиль формата : Layer 3
Настройки формата : Joint stereo
Идентификатор кодека : 55
Идентификатор кодека/Подсказка : MP3
Продолжительность : 49 м. 14 с.
Вид битрейта : Постоянный
Битрейт : 192 Кбит/сек
Каналы : 2 канала
Частота : 48,0 КГц
Частота кадров : 41,667 кадра/сек (1152 SPF)
Метод сжатия : С потерями
Размер потока : 67,6 Мбайт (11%)
Выравнивание : Соединение по промежуткам
Библиотека кодирования : LAME3.99r
Настройки программы : -m j -V 4 -q 2 -lowpass 18.6 -b 192

Когда раздача ведётся путём добавления новых серий, при каждом добавлении создётся новый торрент. Чтобы начать докачку новой серии, пользователям необходимо сделать следующее:
(1) остановить скачивание,
(2) удалить старый торрент у себя из клиента (старые серии удалять не надо),
(3) скачать новый торрент и запустить его у себя в клиенте вместо старого, при этом указать клиенту путь в старую папку, куда и должно происходить скачивание новых серий.
Ваш клиент при этом должен произвести хеширование (проверку) старой папки (если не производит сам - помогите ему сделать это), и будет докачивать только те серии, которых у вас ещё нет. Старые серии при этом не удаляются, а продолжают раздаваться!
Eсли вы уже удалили старые серии, то предотвратить повторную закачку старых серий можно, отжав галочку в соответсвующих местах при запуске нового торрента. По возможности, желательно не удалять старые серии как можно дольше, чтобы релизер не столько продолжал раздавать старые серии, а смог сконцентрироваться на новых.
pb.wtf



Скачать Журавль в небе через торрент http://a.kartinko.org/image_library/originals/62748226.jpg Скачать фильм Журавль в небе через торрент бесплантно в хорошем качестве Описание: Фильм о нелёгкой, но головокружительной судьбе лётчика-испытателя Аси Солнцевой. Действие картины разворачивается в период с 1961 ... 8.8 10 8
Торрент: Зарегистрирован [2020-06-10 13:30] · скачан: 52 раз
Статус: √ проверено
Размер: 7.03 GB
Как cкачать? Как скачать Журавль в небе через торрент | qTorrent

% Раздел Тема Автор DL S | L
Наши сериалы [ 8.97 GB ] Журавль в небе / Сезон: 1 / Серии: 1-12 из 12 [2020 Мело HDTVRip-AVC] bober100 Скачать
1 | 0
Наши сериалы [ 15.1 GB ] Журавль в небе / Сезон: 1 / Серии: 1-12 из 12 [2020 Мело HDTVRip 720p] bober100 Скачать
2 | 0
Наши сериалы [ 7.37 GB ] Журавль в небе / Сезон: 1 / Серии: 1-12 из 12 [2020 Мело HDTVRip] bober100 Скачать
2 | 0
Наши сериалы [ 25.26 GB ] Журавль в небе / Сезон: 1 / Серии: 1-12 из 12 [2020 Мело HDTV 1080i] bober100 Скачать
2 | 0

28-11-2019 20:33  

Отключить всю рекламу на сайте

    Дорогой пользователь! Огромная просьба, поблагодарите релизера, оцените раздачу и оставьте свои комментарий, если Вы скачали Журавль в небе через торрент бесплатно! Внесите свою лепту в развитие PiratBit!
    Комментировать посты могут только пользователи прошедшие не сложную регистрацию
    Показать сообщения:    

    Журавль в небе через торрент
    Скачать бесплатно Журавль в небе
    Журавль в небе скачать торрент
    Журавль в небе смотреть онлайн
    Cкачать фильм Журавль в небе бесплатно
    Журавль в небе скачать торрент в хорошем качестве
    Журавль в небе смотреть онлайн бесплатно в хорошем качестве


    Вы не можете начинать темы
    Вы не можете отвечать на сообщения
    Вы не можете редактировать свои сообщения
    Вы не можете удалять свои сообщения
    Вы не можете голосовать в опросах
    Вы не можете прикреплять файлы к сообщениям
    Вы можете скачивать файлы