2 сезон

iTunes

MVO

1

2 сезон

iTunes

iTunes

1 сезон

RePack

30

Новинка

ВАЖНО

ИГРА 18+

pack

RePack

MK11
pack

Легкие деньги

RePack

jed

RePack

fifa19

RePack

RDR2

RePack

NEED FOR SPEED™ PAYBACK

4 сезон

9 сезон

Бесстыжие 9 сезон

Все сериалы

все сериалы на PB.wtf

RePack

FAR CRY 5

Anonymous, добрый день, мы не успеваем собрать деньги на оплату серверов за декабрь и январь, помогите нам пожалуйста в это трудное время. В качестве благодарности мы отключим Вам всю рекламу на сайте (укажите свой ник в строку Ваше имя)!

×
  
Magnet ссылка

Приказано уничтожить / Executive Decision (Стюарт Бейрд) [1996 г., Боевик, триллер, приключения, BDRip 720p / 60 FPS, Дубляж] от R.G. HD-Films pb.wtf

Приказано уничтожить через торрент pb.wtf

Размер: 4.15 GB | Добавлен: 7 мес. назад | Торрент скачан:37 раз
Скачать  

26-05-2020 15:45 Приказано уничтожить Скачать торрент  

Приказано уничтожить / Executive Decision
Год выпуска: : 1996
Страна: : США
Жанр: : Боевик, триллер, приключения
Продолжительность: 02:12:41
Перевод: Дубляж ( R5 )
Субтитры: Russian, English

Режиссер: Стюарт Бейрд

Бюджет: $55 000 000
Премьера в мире: 15 марта 1996

rating

В ролях: Курт Рассел, Стивен Сигал, Холли Берри, Дэвид Суше, Джон Легуизамо, Оливер Плэтт, Джо Мортон, Б.Д. Вонг, Лен Кариу

Сюжет фильма: В воздухе террористами захвачен "Боинг" с пассажирами на борту. Они требуют освободить из тюрьмы их лидера. Группе специального назначения предстоит найти и обезвредить находящуюся на боевом взводе бомбу, способную уничтожить всё население восточных прибрежных штатов. Задача усложняется ещё и тем, что всю операцию предстоит сделать скрытно и в отсутствии радиосвязи с землёй.


Качество видео: BDRip 720p / 60 FPS
Формат: MKV
Видео кодек: H.264
Аудио кодек: AC3
Видео : x264, 1280 x 536 ( 2,40:1 ), 4093 kbps, 60,000 fps, ( 0.099 bpp)
Аудио : Русский, AC-3, 48.0 KHz, 6 ch, 384 Kbps
Релиз от:

скриншот   скриншот   скриншот   скриншот   скриншот   скриншот  Автор рипа: slaventi-69
x264 [info]: frame I:2631 Avg QP:17.40 size: 70458
x264 [info]: frame P:112344 Avg QP:18.47 size: 19218
x264 [info]: frame B:362231 Avg QP:20.65 size: 4763
x264 [info]: consecutive B-frames: 2.4% 3.3% 7.6% 11.2% 62.7% 12.7%


Общее
Уникальный идентификатор : 197236501799738030853235260030636899078 (0x94625E55A34BA658B2D8E4A6ACE9BB06)
Полное имя : F:\Executive.Decision.(1996).BDRip.720p.(60 Fps).mkv
Формат : Matroska
Версия формата : Version 4
Размер файла : 4,15 Гбайт
Продолжительность : 2 ч. 12 м.
Общий поток : 4478 Кбит/сек
Название фильма : Приказано уничтожить / Executive Decision (1996) BDRip 720p (60 Fps)
Дата кодирования : UTC 2020-05-26 15:15:42
Программа кодирования : mkvmerge v12.0.0 ('Trust / Lust') 64bit
Библиотека кодирования : libebml v1.3.4 + libmatroska v1.4.5

Видео
Идентификатор : 1
Формат : AVC
Формат/Информация : Advanced Video Codec
Профиль формата : High@L4.1
Настройки формата : CABAC / 8 Ref Frames
Параметр CABAC формата : Да
Параметр RefFrames формата : 8 кадров
Идентификатор кодека : V_MPEG4/ISO/AVC
Продолжительность : 2 ч. 12 м.
Битрейт : 4093 Кбит/сек
Ширина : 1280 пикселей
Высота : 536 пикселей
Соотношение сторон : 2,40:1
Режим частоты кадров : Постоянный
Частота кадров : 60,000 кадров/сек
Цветовое пространство : YUV
Субдискретизация насыщенности : 4:2:0
Битовая глубина : 8 бит
Тип развёртки : Прогрессивная
Бит/(Пиксели*Кадры) : 0.099
Размер потока : 3,79 Гбайт (91%)
Заголовок : slaventi-69 ( R.G. HD-Films | 60 fps )
Библиотека кодирования : x264 core 130 r2273 b3065e6
Настройки программы : cabac=1 / ref=8 / deblock=1:-1:-1 / analyse=0x3:0x113 / me=umh / subme=9 / psy=1 / psy_rd=1.00:0.00 / mixed_ref=1 / me_range=28 / chroma_me=1 / trellis=2 / 8x8dct=1 / cqm=0 / deadzone=21,11 / fast_pskip=0 / chroma_qp_offset=-2 / threads=6 / lookahead_threads=2 / sliced_threads=0 / nr=0 / decimate=1 / interlaced=0 / bluray_compat=0 / constrained_intra=0 / bframes=5 / b_pyramid=2 / b_adapt=2 / b_bias=0 / direct=3 / weightb=1 / open_gop=0 / weightp=2 / keyint=600 / keyint_min=25 / scenecut=40 / intra_refresh=0 / rc=crf / mbtree=0 / crf=17.7 / qcomp=0.60 / qpmin=0 / qpmax=69 / qpstep=4 / ip_ratio=1.40 / pb_ratio=1.30 / aq=1:1.00
Язык : English
Default : Да
Forced : Нет

Аудио
Идентификатор : 2
Формат : AC-3
Формат/Информация : Audio Coding 3
Коммерческое название : Dolby Digital
Идентификатор кодека : A_AC3
Продолжительность : 2 ч. 12 м.
Вид битрейта : Постоянный
Битрейт : 384 Кбит/сек
Каналы : 6 каналов
Channel layout : L R C LFE Ls Rs
Частота : 48,0 КГц
Частота кадров : 31,250 кадров/сек (1536 SPF)
Битовая глубина : 16 бит
Метод сжатия : С потерями
Размер потока : 364 Мбайт (9%)
Заголовок : Dub R5
Язык : Russian
ServiceKind/String : Complete Main
Default : Да
Forced : Нет

Текст #1
Идентификатор : 3
Формат : UTF-8
Идентификатор кодека : S_TEXT/UTF8
Идентификатор кодека/Информация : UTF-8 Plain Text
Продолжительность : 2 ч. 7 м.
Битрейт : 63 бит/сек
ElementCount : 1347
Размер потока : 59,4 Кбайт (0%)
Язык : Russian
Default : Нет
Forced : Нет

Текст #2
Идентификатор : 4
Формат : UTF-8
Идентификатор кодека : S_TEXT/UTF8
Идентификатор кодека/Информация : UTF-8 Plain Text
Продолжительность : 2 ч. 10 м.
Битрейт : 42 бит/сек
ElementCount : 1468
Размер потока : 41,1 Кбайт (0%)
Язык : English
Default : Нет
Forced : Нет

Меню
00:00:00.000 : en:Credits, Mission In Trieste
00:04:51.666 : en:Ready To Solo?
00:06:45.822 : en:Abduction In Cyprus
00:10:06.939 : en:Fireworks In London
00:10:51.609 : en:Taking Over Flight 343
00:14:42.172 : en:Brave And Totally Unnecessary
00:16:51.635 : en:Grant's Theory: Revenge
00:22:37.230 : en:Ready For A Plan Ride?
00:25:40.497 : en:The Remora F117X
00:32:36.955 : en:Link Established
00:39:31.035 : en:Fatal Turbulence
00:44:33.379 : en:The Co-Pilot's Inspection
00:49:23.251 : en:Sometime For Strategy
00:53:17.611 : en:Installing Eyes And Ears
00:59:28.606 : en:Looking For Nagi Hassan
01:03:58.835 : en:Vanishing Act
01:07:04.395 : en:Sen. Mavro's Request
01:08:10.252 : en:A Bigger Target Than Thought
01:10:50.621 : en:"What Do You Want Me To Do?"
01:14:51.236 : en:Siege Aloft
01:20:16.978 : en:On The Way To A Glorious Victory
01:22:18.391 : en:The Vengeance Of Allah
01:24:41.117 : en:Phone Call To A Player
01:31:11.841 : en:Target Identified
01:34:18.944 : en:Close Calls
01:41:14.401 : en:Mavros Plays His Part
01:43:28.535 : en:They Get The Message
01:46:41.937 : en:The Waiting Game
01:50:02.679 : en:Grant Makes His Move
01:51:12.707 : en:The Sleeper Revealed
01:52:38.418 : en:Mayday
01:54:56.890 : en:Hassan's Final Gambit
01:56:51.963 : en:Getting Ahold Of The Plane
01:58:09.082 : en:By The Book
02:01:49.802 : en:Touchdown
02:05:22.389 : en:"As Long As You're Not Flying"
02:08:00.214 : en:End Credits

Просьба к переливающим на другие сайты, в оформлении указывайте пожалуйста авторство группы R.G. HD-Films pb.wtf



Скачать Приказано уничтожить через торрент https://i3.imageban.ru/out/2020/02/19/e21602d15731e558c4abbea056150a7a.png Скачать фильм Приказано уничтожить через торрент бесплантно в хорошем качестве В ролях: Курт Рассел, Стивен Сигал, Холли Берри, Дэвид Суше, Джон Легуизамо, Оливер Плэтт, Джо Мортон, Б.Д. Вонг, Лен Кариу Сюжет фильма: ... 8.3 10 10
Торрент: Зарегистрирован [2020-05-26 15:45] · скачан: 37 раз
Статус: √ проверено
Размер: 4.15 GB
Как cкачать? Как скачать Приказано уничтожить через торрент | UTorrent

28-11-2019 20:33  

Отключить всю рекламу на сайте

27-05-2020 07:43 Приказано уничтожить Скачать торрент  

Просто интересно, кто так оценивает -Рейтинг: 4.3 / 10 (3), напишите хоть - что не так.pb.wtf



27-05-2020 08:26 Приказано уничтожить Скачать торрент  

Низкие оценки раздачи надо обосновывать, я думаю это было-бы правильно.pb.wtf



27-05-2020 11:32 Приказано уничтожить Скачать торрент  

а фильм агонь, да?pb.wtf



27-05-2020 15:05 Приказано уничтожить Скачать торрент  

edapush писал(а):

а фильм агонь, да?

Это был сарказм?pb.wtf



30-05-2020 18:52 Приказано уничтожить Скачать торрент  

Фильм хороший, не то что сейчас всякую хрень снимают с бюджетом в сотни лимонов баксов с просмотром на один раз, а минусуют мудаки и требовать от них объяснений просто бесполезно. Спасибо за труды.pb.wtf



    Дорогой пользователь! Огромная просьба, поблагодарите релизера, оцените раздачу и оставьте свои комментарий, если Вы скачали Приказано уничтожить через торрент бесплатно! Внесите свою лепту в развитие PiratBit!
    Комментировать посты могут только пользователи прошедшие не сложную регистрацию
    Показать сообщения:    

    Приказано уничтожить через торрент
    Скачать бесплатно Приказано уничтожить
    Приказано уничтожить скачать торрент
    Приказано уничтожить смотреть онлайн
    Cкачать фильм Приказано уничтожить бесплатно
    Приказано уничтожить скачать торрент в хорошем качестве
    Приказано уничтожить смотреть онлайн бесплатно в хорошем качестве


    Вы не можете начинать темы
    Вы не можете отвечать на сообщения
    Вы не можете редактировать свои сообщения
    Вы не можете удалять свои сообщения
    Вы не можете голосовать в опросах
    Вы не можете прикреплять файлы к сообщениям
    Вы можете скачивать файлы