2 сезон

iTunes

MVO

1

2 сезон

iTunes

iTunes

1 сезон

RePack

30

Ultimate

ВАЖНО

ИГРА 18+

pack

RePack

MK11
pack

Легкие деньги

RePack

jed

RePack

fifa19

RePack

RDR2

RePack

NEED FOR SPEED™ PAYBACK

4 сезон

9 сезон

Бесстыжие 9 сезон

Все сериалы

все сериалы на PB.wtf

RePack

FAR CRY 5

Anonymous, добрый вечер, мы не успеваем собрать деньги на оплату серверов за декабрь и январь, помогите нам пожалуйста в это трудное время. В качестве благодарности мы отключим Вам всю рекламу на сайте (укажите свой ник в строку Ваше имя)!

×
  
Magnet ссылка

Обвиняемый / Presunto culpable / Сезон: 1 / Серии: 1-13 из 13 (Алехандро Бассано, Менна Фите, Альберто Руис Рохо) [2018, триллер, WEB-DL 1080p] DVO [IVI] pb.wtf

Обвиняемый через торрент pb.wtf

Размер: 63.81 GB | Добавлен: 7 мес. назад | Торрент скачан:2 раза
Скачать  

27-05-2020 05:33 Обвиняемый Скачать торрент  

Обвиняемый | Presunto culpable
Год выпуска: 2018
Страна: Испания
Жанр: триллер
Продолжительность: ~01:10:00
Перевод: Профессиональный (двухголосый закадровый) | IVI
Субтитры: Spanish (Forced, SDH)

Режиссёр: Менна Фите, Альберто Руис Рохо

В ролях: Мигель Анхель Муньос, Суси Санчес, Эльвира Мингес, Хосеан Бенгоэчеа, Томас дел Эстал, Ицияр Атьенца, Алехандра Ониэва, Тереса Уртадо де Ори, Карлос Серрано

Описание: Йон Аристеги, ученый, живет в Париже и уже 6 лет не появляется в родном посёлке, после исчезновения своей девушки. Семейные обстоятельства вынуждают его вернуться в рыбацкий поселок в Стране Басков, где случилось это страшное событие, тайна которого вскоре будет раскрыта.

Качество: WEB-DL 1080p
Формат: MKV

Видео: 1920x960 at 25 fps, MPEG-4 AVC, ~10000 kbps avg
Аудио 1: 48 kHz, AC3, 2/0 (L,R) ch, ~192 kbps avg | IVI
Аудио 2: 48 kHz, E-AC3, 3/2 (L,C,R,l,r) + LFE ch, ~640 kbps avg


rating
Внимание! Раздача ведётся путём добавления новых серий; при каждом добавлении создаётся новый торрент. Чтобы начать докачку новой серии, пользователям необходимо сделать следующее:
(1) остановить скачивание,
(2) удалить старый торрент у себя из клиента (старые серии удалять не надо),
(3) скачать новый торрент и запустить его у себя в клиенте вместо старого, при этом указать клиенту путь в старую папку куда и должно происходить скачивание новых серий.

Ваш клиент при этом должен произвести хеширование (проверку) старой папки (если не производит сам - помогите ему сделать это), и будет докачивать только те серии которых у вас ещё нет. Старые серии при этом не удаляются, а продолжают раздаваться!

Eсли вы уже удалили старые серии, то предотвратить повторную закачку старых серий можно, отжав галочку в соответствующих местах при запуске нового торрента. По возможности, желательно не удалять старые серии как можно дольше чтобы релизёр не столько продолжал раздавать старые серии, а смог сконцентрироваться на новых.
Общее
Уникальный идентификатор : 324950353193691757843819420607779240826 (0xF477295C5B30A41D0794B119C8BCFB7A)
Полное имя : C:\Users\root\Downloads\Presunto.culpable.S01.1080p.AMZN.WEB-DL.DDP5.1.H.264-CasStudio_Kyle\Presunto.culpable.S01E01.1080p.AMZN.WEB-DL.DDP5.1.H.264-CasStudio_RGzsRutracker.mkv
Формат : Matroska
Версия формата : Version 4
Размер файла : 5,09 Гбайт
Продолжительность : 1 ч. 7 м.
Общий поток : 10,8 Мбит/сек
Дата кодирования : UTC 2020-05-15 20:20:18
Программа кодирования : mkvmerge v46.0.0 ('No Deeper Escape') 64-bit
Библиотека кодирования : libebml v1.3.10 + libmatroska v1.5.2

Видео
Идентификатор : 1
Формат : AVC
Формат/Информация : Advanced Video Codec
Профиль формата : High@L4
Настройки формата : CABAC / 4 Ref Frames
Параметр CABAC формата : Да
Параметр RefFrames формата : 4 кадра
Параметр GOP формата : M=4, N=50
Идентификатор кодека : V_MPEG4/ISO/AVC
Продолжительность : 1 ч. 7 м.
Вид битрейта : Постоянный
Битрейт : 10000 Кбит/сек
Ширина : 1920 пикселей
Высота : 960 пикселей
Соотношение сторон : 2,000
Режим частоты кадров : Постоянный
Частота кадров : 25,000 кадров/сек
Цветовое пространство : YUV
Субдискретизация насыщенности : 4:2:0
Битовая глубина : 8 бит
Тип развёртки : Прогрессивная
Бит/(Пиксели*Кадры) : 0.217
Размер потока : 4,70 Гбайт (92%)
Язык : Spanish
Default : Да
Forced : Нет
Цветовой диапазон : Limited
Основные цвета : BT.709
Характеристики трансфера : BT.709
Коэффициенты матрицы : BT.709

Аудио #1
Идентификатор : 2
Формат : AC-3
Формат/Информация : Audio Coding 3
Коммерческое название : Dolby Digital
Идентификатор кодека : A_AC3
Продолжительность : 1 ч. 7 м.
Вид битрейта : Постоянный
Битрейт : 192 Кбит/сек
Каналы : 2 канала
ChannelLayout : L R
Частота : 48,0 КГц
Частота кадров : 31,250 кадров/сек (1536 SPF)
Метод сжатия : С потерями
Размер потока : 92,7 Мбайт (2%)
Язык : Russian
ServiceKind/String : Complete Main
Default : Да
Forced : Нет

Аудио #2
Идентификатор : 3
Формат : E-AC-3
Формат/Информация : Enhanced AC-3
Коммерческое название : Dolby Digital Plus
Идентификатор кодека : A_EAC3
Продолжительность : 1 ч. 7 м.
Вид битрейта : Постоянный
Битрейт : 640 Кбит/сек
Каналы : 6 каналов
ChannelLayout : L R C LFE Ls Rs
Частота : 48,0 КГц
Частота кадров : 31,250 кадров/сек (1536 SPF)
Метод сжатия : С потерями
Размер потока : 309 Мбайт (6%)
Язык : Spanish
ServiceKind/String : Complete Main
Default : Нет
Forced : Нет

Текст #1
Идентификатор : 4
Формат : UTF-8
Идентификатор кодека : S_TEXT/UTF8
Идентификатор кодека/Информация : UTF-8 Plain Text
Продолжительность : 52 м. 29 с.
Битрейт : 4 бит/сек
ElementCount : 69
Размер потока : 1,87 Кбайт (0%)
Заголовок : Forced
Язык : Spanish
Default : Нет
Forced : Нет

Текст #2
Идентификатор : 5
Формат : UTF-8
Идентификатор кодека : S_TEXT/UTF8
Идентификатор кодека/Информация : UTF-8 Plain Text
Продолжительность : 1 ч. 6 м.
Битрейт : 46 бит/сек
ElementCount : 655
Размер потока : 22,8 Кбайт (0%)
Заголовок : SDH
Язык : Spanish
Default : Нет
Forced : Нет
скриншот  скриншот  скриншот  
pb.wtf



Скачать Обвиняемый через торрент https://i112.fastpic.ru/big/2020/0517/27/2cf940f7d90e5c8a89f77ac503651f27.jpg Скачать фильм Обвиняемый через торрент бесплантно в хорошем качестве Описание: Йон Аристеги, ученый, живет в Париже и уже 6 лет не появляется в родном посёлке, после исчезновения своей девушки. Семейные ... 10 10 2
Info! Золотая раздача, скачанное не засчитывается.
Торрент: Зарегистрирован [2020-05-27 05:33] · скачан: 2 раз
Статус: √ проверено
Размер: 63.81 GB
Как cкачать? Как скачать Обвиняемый через торрент | UTorrent

% Раздел Тема Автор DL S | L
Зарубежные сериалы [ 21.5 GB ] Обвиняемый / Presunto culpable / Сезон: 1 / Серии: 1-13 из 13 [2018 WEB-DL 1080p] DVO [ViruseProject] bober100 Скачать
1 | 0

28-11-2019 20:33  

Отключить всю рекламу на сайте

    Дорогой пользователь! Огромная просьба, поблагодарите релизера, оцените раздачу и оставьте свои комментарий, если Вы скачали Обвиняемый через торрент бесплатно! Внесите свою лепту в развитие PiratBit!
    Комментировать посты могут только пользователи прошедшие не сложную регистрацию
    Показать сообщения:    

    Обвиняемый через торрент
    Скачать бесплатно Обвиняемый
    Обвиняемый скачать торрент
    Обвиняемый смотреть онлайн
    Cкачать фильм Обвиняемый бесплатно
    Обвиняемый скачать торрент в хорошем качестве
    Обвиняемый смотреть онлайн бесплатно в хорошем качестве


    Вы не можете начинать темы
    Вы не можете отвечать на сообщения
    Вы не можете редактировать свои сообщения
    Вы не можете удалять свои сообщения
    Вы не можете голосовать в опросах
    Вы не можете прикреплять файлы к сообщениям
    Вы можете скачивать файлы