2 сезон

iTunes

1 сезон

1

iTunes

iTunes

iTunes

1 сезон

RePack

30

ИГРА 18+

pack

ВАЖНО

!!Акция!!

Alien_RageХит недели

RePack

MK11
pack

Забери бонус

RePack

jed

!!Акция!!

Alien_Rage

RePack

fifa19

RePack

Assassins Creed: Odyssey

RePack

NEED FOR SPEED™ PAYBACK

4 сезон

9 сезон

Бесстыжие 9 сезон

Все сериалы

все сериалы на PB.wtf

RePack

FAR CRY 5
  

Таисия / Серии: 1-4 из 4 (Валерий Ибрагимов) [2018, Мелодрама, WEB-DLRip] pb.wtf

Таисия через торрент pb.wtf

Размер: 2.72 GB | Добавлен: 5 мес. 3 д. назад | Торрент скачан:17 раз
Скачать  

27-05-2020 19:37 Таисия Скачать торрент  

Таисия
Год выпуска: 2018
Страна: Россия, Украина
Жанр: Мелодрама
Продолжительность: 00:51:00
Перевод: Не требуется
Субтитры: отсутствуют

Режиссер: Валерий Ибрагимов



В ролях: Евгения Нохрина, Дмитрий Белякин, Алексей Зубков, Анна Казючиц, Алексей Тритенко, Анатолий Зиновенко

Описание: Таисия живёт в посёлке, затерянном среди непроходимых лесов и совершенно оторванном от цивилизации. Здесь почти нет жителей, отсутствует мобильная связь, а единственную дорогу, связывающую поселок с городом, периодически размывает, и тогда по ней невозможно проехать. Таисия – сирота. Единственный человек, к которому она может обратиться за советом, – пожилая соседка Василиса. У девушки есть поклонник – местный хулиган и браконьер Вадим, недавно вышедший из тюрьмы. Она не испытывает к нему ни малейшей симпатии. Но в такой глуши защитить Таю от его ухаживаний некому.Все меняется, когда в поселок приезжает молодой талантливый художник Сергей...

Качество: WEB-DLRip
Формат: AVI

Видео: XviD, ~ 1612 Кбит/с, 720x400, 25 кадр/с
Аудио: 48.0 kHz, AC3 Dolby Digital, 2/0 (L,R) ch, ~ 192 kbps
скриншот  скриншот  скриншот  скриншот  скриншот  

General
Complete name : C:01.Таисия.(2018).WEB-DLRip.by.Nicodem.Files-x.avi
Format : AVI
Format/Info : Audio Video Interleave
File size : 695 MiB
Duration : 53mn 35s
Overall bit rate : 1 813 Kbps
Writing application : VirtualDubMod 1.5.10.3 | www.virtualdub-fr.org || (build 2550/release)
Writing library : VirtualDubMod build 2550/release

Video
ID : 0
Format : MPEG-4 Visual
Format profile : Advanced Simple@L5
Format settings, BVOP : 1
Format settings, QPel : No
Format settings, GMC : No warppoints
Format settings, Matrix : Custom
Codec ID : XVID
Codec ID/Hint : XviD
Duration : 53mn 35s
Bit rate : 1 612 Kbps
Width : 720 pixels
Height : 400 pixels
Display aspect ratio : 16:9
Frame rate : 25.000 fps
Color space : YUV
Chroma subsampling : 4:2:0
Bit depth : 8 bits
Scan type : Progressive
Compression mode : Lossy
Bits/(Pixel*Frame) : 0.224
Stream size : 618 MiB (89%)
Writing library : XviD 73

Audio
ID : 1
Format : AC-3
Format/Info : Audio Coding 3
Mode extension : CM (complete main)
Codec ID : 2000
Duration : 53mn 35s
Bit rate mode : Constant
Bit rate : 192 Kbps
Channel(s) : 2 channels
Channel positions : Front: L R
Sampling rate : 48.0 KHz
Bit depth : 16 bits
Compression mode : Lossy
Stream size : 73.6 MiB (11%)
Alignment : Split accross interleaves
Interleave, duration : 40 ms (1.00 video frame)
Interleave, preload duration : 500 ms

pb.wtf



Скачать Таисия через торрент http://i103.fastpic.ru/big/2018/0916/74/2c4ee4d7cf6c51a7a3f3ffc549561374.jpg Скачать фильм Таисия через торрент бесплантно в хорошем качестве Описание: Таисия живёт в посёлке, затерянном среди непроходимых лесов и совершенно оторванном от цивилизации. Здесь почти нет жителей, ... 9.7 10 6
Торрент: Зарегистрирован [2020-05-27 19:37] · скачан: 17 раз
Статус: √ проверено
Размер: 2.72 GB
Как cкачать? Как скачать Таисия через торрент | qTorrent

% Раздел Тема Автор DL S | L
Наши сериалы [ 7.81 GB ] Таисия / Серии: 1-4 из 4 [2018 Мело WEB-DL 1080p] bober100 Скачать
1 | 0
Наши сериалы [ 5.53 GB ] Таисия / Серии: 1-4 из 4 [2018 Мело WEB-DL 720p] bober100 Скачать
1 | 0
Наши сериалы [ 2.69 GB ] Таисия / Серии: 1-4 из 4 [2018 Мело WEB-DLRip-AVC] bober100 Скачать
1 | 0
Наши сериалы [ 2.73 GB ] Таисия / Серии: 1-4 из 4 [2018 Мело SATRip] bober100 Скачать
1 | 0

28-11-2019 20:33  

Отключить всю рекламу на сайте

    Дорогой пользователь! Огромная просьба, поблагодарите релизера, оцените раздачу и оставьте свои комментарий, если Вы скачали Таисия через торрент бесплатно! Внесите свою лепту в развитие PiratBit!
    Комментировать посты могут только пользователи прошедшие не сложную регистрацию
    Показать сообщения:    

    Таисия через торрент
    Скачать бесплатно Таисия
    Таисия скачать торрент
    Таисия смотреть онлайн
    Cкачать фильм Таисия бесплатно
    Таисия скачать торрент в хорошем качестве
    Таисия смотреть онлайн бесплатно в хорошем качестве


    Вы не можете начинать темы
    Вы не можете отвечать на сообщения
    Вы не можете редактировать свои сообщения
    Вы не можете удалять свои сообщения
    Вы не можете голосовать в опросах
    Вы не можете прикреплять файлы к сообщениям
    Вы можете скачивать файлы