Ссылка на приватное зеркало нашего сайта всего за 1$. Внимание количество ограничено!!!

2 сезон

iTunes

1 сезон

1

iTunes

iTunes

iTunes

1 сезон

RePack

30

ИГРА 18+

pack

ВАЖНО

!!Акция!!

Alien_RageХит недели

RePack

MK11
pack

Забери бонус

RePack

jed

!!Акция!!

Alien_Rage

RePack

fifa19

RePack

Assassins Creed: Odyssey

RePack

NEED FOR SPEED™ PAYBACK

4 сезон

9 сезон

Бесстыжие 9 сезон

Все сериалы

все сериалы на PB.wtf

RePack

FAR CRY 5
  

Таисия / Серии: 1-4 из 4 (Валерий Ибрагимов) [2018, Мелодрама, WEB-DL 720p] pb.wtf

Таисия через торрент pb.wtf

Размер: 5.53 GB | Добавлен: 4 мес. 28 д. назад | Торрент скачан:8 раз
Скачать  

27-05-2020 19:37 Таисия Скачать торрент  

Таисия
Год выпуска: 2018
Страна: Россия, Украина
Жанр: Мелодрама
Продолжительность: 00:51:00
Перевод: Не требуется
Субтитры: отсутствуют

Режиссер: Валерий Ибрагимов



В ролях: Евгения Нохрина, Дмитрий Белякин, Алексей Зубков, Анна Казючиц, Алексей Тритенко, Анатолий Зиновенко

Описание: Таисия живёт в посёлке, затерянном среди непроходимых лесов и совершенно оторванном от цивилизации. Здесь почти нет жителей, отсутствует мобильная связь, а единственную дорогу, связывающую поселок с городом, периодически размывает, и тогда по ней невозможно проехать. Таисия – сирота. Единственный человек, к которому она может обратиться за советом, – пожилая соседка Василиса. У девушки есть поклонник – местный хулиган и браконьер Вадим, недавно вышедший из тюрьмы. Она не испытывает к нему ни малейшей симпатии. Но в такой глуши защитить Таю от его ухаживаний некому.Все меняется, когда в поселок приезжает молодой талантливый художник Сергей...

Качество: WEB-DL 720p
Формат: MKV

Видео: MPEG-4 AVC, ~ 3500 Кбит/с, 1280x720, 25 кадр/с
Аудио: 48.0 kHz, AC3 Dolby Digital, 2/0 (L,R) ch, ~ 192 kbps
скриншот  скриншот  скриншот  скриншот  скриншот  

General
Unique ID : 145156441255806068680554300583844105135 (0x6D341D1A5D0B3DDC6F0816B9B8F1CBAF)
Complete name : C:01.Таисия.(2018).WEB-DL (720p).by.Nicodem.Files-x.mkv
Format : Matroska
File size : 1.38 GiB
Duration : 53mn 35s
Overall bit rate : 3 686 Kbps
Writing application : Lavf56.36.100
Writing library : Lavf56.36.100

Video
ID : 1
Format : AVC
Format/Info : Advanced Video Codec
Format profile : High@L4.1
Format settings, CABAC : Yes
Format settings, ReFrames : 5 frames
Codec ID : V_MPEG4/ISO/AVC
Duration : 53mn 35s
Bit rate : 3 500 Kbps
Width : 1 280 pixels
Height : 720 pixels
Display aspect ratio : 16:9
Frame rate mode : Variable
Frame rate : 25.000 fps
Color space : YUV
Chroma subsampling : 4:2:0
Bit depth : 8 bits
Scan type : Progressive
Bits/(Pixel*Frame) : 0.152
Stream size : 1.28 GiB (93%)
Writing library : x264 core 148
Encoding settings : cabac=1 / ref=5 / deblock=1:0:0 / analyse=0x3:0x113 / me=hex / subme=8 / psy=1 / psy_rd=1.00:0.00 / mixed_ref=1 / me_range=16 / chroma_me=1 / trellis=2 / 8x8dct=1 / cqm=0 / deadzone=21,11 / fast_pskip=1 / chroma_qp_offset=-2 / threads=22 / lookahead_threads=3 / sliced_threads=0 / nr=0 / decimate=1 / interlaced=0 / bluray_compat=0 / constrained_intra=0 / bframes=3 / b_pyramid=2 / b_adapt=1 / b_bias=0 / direct=3 / weightb=1 / open_gop=0 / weightp=2 / keyint=250 / keyint_min=25 / scenecut=0 / intra_refresh=0 / rc_lookahead=50 / rc=abr / mbtree=1 / bitrate=3500 / ratetol=1.0 / qcomp=0.60 / qpmin=0 / qpmax=69 / qpstep=4 / ip_ratio=1.40 / aq=1:1.00
Language : English

Audio
ID : 2
Format : AC-3
Format/Info : Audio Coding 3
Mode extension : CM (complete main)
Codec ID : A_AC3
Duration : 53mn 35s
Bit rate mode : Constant
Bit rate : 192 Kbps
Channel(s) : 2 channels
Channel positions : Front: L R
Sampling rate : 44.1 KHz
Bit depth : 16 bits
Compression mode : Lossy
Delay relative to video : 1mn 5s
Stream size : 73.6 MiB (5%)
Language : English / un

pb.wtf



Скачать Таисия через торрент https://i112.fastpic.ru/big/2020/0527/5c/229a150a9e6a3a8072aae031ed60135c.jpg Скачать фильм Таисия через торрент бесплантно в хорошем качестве Описание: Таисия живёт в посёлке, затерянном среди непроходимых лесов и совершенно оторванном от цивилизации. Здесь почти нет жителей, ... 10 10 2
Торрент: Зарегистрирован [2020-05-27 19:37] · скачан: 8 раз
Статус: √ проверено
Размер: 5.53 GB
Как cкачать? Как скачать Таисия через торрент | qTorrent

% Раздел Тема Автор DL S | L
Наши сериалы [ 7.81 GB ] Таисия / Серии: 1-4 из 4 [2018 Мело WEB-DL 1080p] bober100 Скачать
1 | 0
Наши сериалы [ 2.69 GB ] Таисия / Серии: 1-4 из 4 [2018 Мело WEB-DLRip-AVC] bober100 Скачать
1 | 0
Наши сериалы [ 2.72 GB ] Таисия / Серии: 1-4 из 4 [2018 Мело WEB-DLRip] bober100 Скачать
2 | 0
Наши сериалы [ 2.73 GB ] Таисия / Серии: 1-4 из 4 [2018 Мело SATRip] bober100 Скачать
1 | 0

28-11-2019 20:33  

Отключить всю рекламу на сайте

    Дорогой пользователь! Огромная просьба, поблагодарите релизера, оцените раздачу и оставьте свои комментарий, если Вы скачали Таисия через торрент бесплатно! Внесите свою лепту в развитие PiratBit!
    Комментировать посты могут только пользователи прошедшие не сложную регистрацию
    Показать сообщения:    

    Таисия через торрент
    Скачать бесплатно Таисия
    Таисия скачать торрент
    Таисия смотреть онлайн
    Cкачать фильм Таисия бесплатно
    Таисия скачать торрент в хорошем качестве
    Таисия смотреть онлайн бесплатно в хорошем качестве


    Вы не можете начинать темы
    Вы не можете отвечать на сообщения
    Вы не можете редактировать свои сообщения
    Вы не можете удалять свои сообщения
    Вы не можете голосовать в опросах
    Вы не можете прикреплять файлы к сообщениям
    Вы можете скачивать файлы