Ссылка на приватное зеркало нашего сайта всего за 1$. Внимание количество ограничено!!!

2 сезон

iTunes

1 сезон

1

iTunes

iTunes

iTunes

1 сезон

RePack

30

ИГРА 18+

pack

ВАЖНО

!!Акция!!

Alien_RageХит недели

RePack

MK11
pack

Забери бонус

RePack

jed

!!Акция!!

Alien_Rage

RePack

fifa19

RePack

Assassins Creed: Odyssey

RePack

NEED FOR SPEED™ PAYBACK

4 сезон

9 сезон

Бесстыжие 9 сезон

Все сериалы

все сериалы на PB.wtf

RePack

FAR CRY 5
  

Клевер желаний / Серии: 1-4 из 4 (Павел Тупик) [2019, Мелодрама, WEB-DL 1080p] pb.wtf

Клевер желаний через торрент pb.wtf

Размер: 6.64 GB | Добавлен: 4 мес. 23 д. назад | Торрент скачан:3 раза
Скачать  

27-05-2020 19:53 Клевер желаний Скачать торрент  

Клевер желаний
Год выпуска: 2019
Страна: Россия, Украина
Жанр: Мелодрама
Продолжительность: ~ 00:45:00
Перевод: Не требуется
Субтитры: отсутствуют

Режиссер: Павел Тупик

В ролях: Ксения Радченко (II), Александр Соколовский, Антон Ерёмин, Татьяна Скляр, Иван Тамашев, Евфросиния Мельник, Александра Польгуй, Анатолий Зиновенко, Олег Коркушко, Светлана Шекера, Сергей Дзялик, Олег Власов (II), Артём Мяус

Описание: Юля и Андрей молодая семейная пара. Юля мечтает завести ребенка, а Андрей думает только о карьере: он хочет стать шеф-поваром. Понимая, что Андрей не собирается заводить ребенка, Юля решает уйти от него. Во время их ссоры Андрею звонят из больницы - сестра Андрея, попала в аварию и сейчас в коме. На Андрея сваливается забота о ее троих детях. Юля решает повременить с уходом и помочь с детьми..

Качество: WEB-DL 1080p
Формат: MKV

Видео: MPEG-4 AVC, ~ 5000 Кбит/с, 1920x1080, 25 кадр/с
Аудио: 48.0 kHz, AC3 Dolby Digital, 2/0 (L,R) ch, ~ 192 kbps
скриншот  скриншот  скриншот  скриншот  скриншот  

General
Unique ID : 192170099816486631185475758016539843512 (0x90929D6E5CC1E1FC3DA1256ED08ADBB8)
Complete name : C:01.Клевер желаний.(2019).WEB-DL (1080p).by.Nicodem.Files-x.mkv
Format : Matroska
File size : 1.66 GiB
Duration : 45mn 25s
Overall bit rate : 5 221 Kbps
Writing application : Lavf56.36.100
Writing library : Lavf56.36.100

Video
ID : 1
Format : AVC
Format/Info : Advanced Video Codec
Format profile : High@L4.1
Format settings, CABAC : Yes
Format settings, ReFrames : 5 frames
Codec ID : V_MPEG4/ISO/AVC
Duration : 45mn 25s
Bit rate : 5 000 Kbps
Width : 1 920 pixels
Height : 1 080 pixels
Display aspect ratio : 16:9
Frame rate mode : Variable
Frame rate : 25.000 fps
Color space : YUV
Chroma subsampling : 4:2:0
Bit depth : 8 bits
Scan type : Progressive
Bits/(Pixel*Frame) : 0.096
Stream size : 1.56 GiB (94%)
Writing library : x264 core 148
Encoding settings : cabac=1 / ref=5 / deblock=1:0:0 / analyse=0x3:0x113 / me=hex / subme=8 / psy=1 / psy_rd=1.00:0.00 / mixed_ref=1 / me_range=16 / chroma_me=1 / trellis=2 / 8x8dct=1 / cqm=0 / deadzone=21,11 / fast_pskip=1 / chroma_qp_offset=-2 / threads=34 / lookahead_threads=5 / sliced_threads=0 / nr=0 / decimate=1 / interlaced=0 / bluray_compat=0 / constrained_intra=0 / bframes=3 / b_pyramid=2 / b_adapt=1 / b_bias=0 / direct=3 / weightb=1 / open_gop=0 / weightp=2 / keyint=250 / keyint_min=25 / scenecut=0 / intra_refresh=0 / rc_lookahead=50 / rc=abr / mbtree=1 / bitrate=5000 / ratetol=1.0 / qcomp=0.60 / qpmin=0 / qpmax=69 / qpstep=4 / ip_ratio=1.40 / aq=1:1.00
Language : English

Audio
ID : 2
Format : AC-3
Format/Info : Audio Coding 3
Mode extension : CM (complete main)
Codec ID : A_AC3
Duration : 45mn 25s
Bit rate mode : Constant
Bit rate : 192 Kbps
Channel(s) : 2 channels
Channel positions : Front: L R
Sampling rate : 44.1 KHz
Bit depth : 16 bits
Compression mode : Lossy
Delay relative to video : 1mn 5s
Stream size : 62.4 MiB (4%)
Language : English / un

pb.wtf



Скачать Клевер желаний через торрент https://i112.fastpic.ru/big/2020/0527/36/212cb864977dedf9220ca51b99e3be36.jpg Скачать фильм Клевер желаний через торрент бесплантно в хорошем качестве Описание: Юля и Андрей молодая семейная пара. Юля мечтает завести ребенка, а Андрей думает только о карьере: он хочет стать шеф-поваром. ... 10 10 2
Торрент: Зарегистрирован [2020-05-27 19:53] · скачан: 3 раз
Статус: √ проверено
Размер: 6.64 GB
Как cкачать? Как скачать Клевер желаний через торрент | qTorrent

% Раздел Тема Автор DL S | L
Наши сериалы [ 2.31 GB ] Клевер желаний / Серии: 1-4 из 4 [2019 Мело WEB-DLRip] bober100 Скачать
2 | 0
Наши сериалы [ 4.7 GB ] Клевер желаний / Серии: 1-4 из 4 [2019 Мело WEB-DL 720p] bober100 Скачать
1 | 0

28-11-2019 20:33  

Отключить всю рекламу на сайте

    Дорогой пользователь! Огромная просьба, поблагодарите релизера, оцените раздачу и оставьте свои комментарий, если Вы скачали Клевер желаний через торрент бесплатно! Внесите свою лепту в развитие PiratBit!
    Комментировать посты могут только пользователи прошедшие не сложную регистрацию
    Показать сообщения:    

    Клевер желаний через торрент
    Скачать бесплатно Клевер желаний
    Клевер желаний скачать торрент
    Клевер желаний смотреть онлайн
    Cкачать фильм Клевер желаний бесплатно
    Клевер желаний скачать торрент в хорошем качестве
    Клевер желаний смотреть онлайн бесплатно в хорошем качестве


    Вы не можете начинать темы
    Вы не можете отвечать на сообщения
    Вы не можете редактировать свои сообщения
    Вы не можете удалять свои сообщения
    Вы не можете голосовать в опросах
    Вы не можете прикреплять файлы к сообщениям
    Вы можете скачивать файлы