Ссылка на приватное зеркало нашего сайта всего за 1$. Внимание количество ограничено!!!

2 сезон

iTunes

1 сезон

1

2 сезон

2 сезон

iTunes

1 сезон

RePack

30

Новинка

ВАЖНО

ИГРА 18+

pack

RePack

MK11
pack

Забери бонус

RePack

jed

!!Акция!!

Alien_Rage

RePack

fifa19

RePack

Assassins Creed: Odyssey

RePack

NEED FOR SPEED™ PAYBACK

4 сезон

9 сезон

Бесстыжие 9 сезон

Все сериалы

все сериалы на PB.wtf

RePack

FAR CRY 5
  

Банкир / The Banker (Джордж Нолфи) [2020, Драма, биография, WEBRip 720p] [MVO] (HDRezka Studio) pb.wtf

Банкир через торрент pb.wtf

Раздают: 2 [ 0 KB/s ]
Размер: 3.21 GB | Добавлен: 6 мес. назад | Торрент скачан:276 раз
Скачать  

28-05-2020 05:49 Банкир Скачать торрент  

Банкир / The Banker
Информация о фильме

Год выхода: 2020
Жанр: Драма, биография
Страна: США
Студия: Romulus Entertainment, Hyphenate Films, Iam21 Entertainment
Продолжительность: 02:00:26
Перевод: Профессиональный (многоголосый) *HDRezka Studio*
Субтитры: русские (forced)

Режиссер: Джордж Нолфи

В ролях: Николас Холт, Сэмюэл Л. Джексон, Энтони Маки, Ниа Лонг, Тейлор Блэк, Колм Мини, Джесси Ашер, Майкл Харни, Грегори Алан Уильямс, Джеймс ДюМонт

О фильме: Бернард Гаррет прошел суровую школу жизни и отлично понимал, как тяжело темнокожему парню пробиться в большой бизнес, где всем заправляют белые. Переехав в Лос-Анджелес, мужчина покупает несколько зданий и создаёт сложную систему займов в надежде обеспечить жильём афро-американцев. Бернард добивается успеха, однако из-за расовых предрассудков не может продвинуться дальше. Вскоре он знакомится с успешным бизнесменом Джо Моррисом, который соглашается помочь ему расширить бизнес в белых районах. Герои находят белого разнорабочего Мэтта и отправляют его на важные встречи с банкирами, которые никогда бы не согласились на сделку с темнокожими. Тем временем сами Бернард и Джо притворяются шофёром и уборщиком, контролируя всю деятельность стремительно развивающейся компании...



Файл

Качество: WEBRip 720p
Формат: MKV
Видео: MPEG-4 AVC, 1280x536, 3 543 Kbps
Аудио: 48 kHz, AC3 Dolby Digital, 2 ch, ~192 kbps avg
General
Unique ID : 236816865029834149218290669362640072362 (0xB22944E84DF9E3DA193D3F94F3882EAA)
Complete name : G:\The.Banker.2020.WEBRip.720p.rus.2.0.HDREZKA.STUDIO.mkv
Format : Matroska
Format version : Version 4 / Version 2
File size : 3.21 GiB
Duration : 2h 0mn
Overall bit rate mode : Variable
Overall bit rate : 3 810 Kbps
Encoded date : UTC 2020-05-27 14:51:52
Writing application : mkvmerge v28.2.0 ('The Awakening') 64-bit
Writing library : libebml v1.3.6 + libmatroska v1.4.9

Video
ID : 1
Format : AVC
Format/Info : Advanced Video Codec
Format profile : High@L4.1
Format settings, CABAC : Yes
Format settings, ReFrames : 1 frame
Codec ID : V_MPEG4/ISO/AVC
Duration : 2h 0mn
Bit rate mode : Variable
Bit rate : 3 543 Kbps
Maximum bit rate : 2 000 Kbps
Width : 1 280 pixels
Height : 536 pixels
Display aspect ratio : 2.40:1
Frame rate mode : Constant
Frame rate : 23.976 fps
Color space : YUV
Chroma subsampling : 4:2:0
Bit depth : 8 bits
Scan type : Progressive
Bits/(Pixel*Frame) : 0.215
Stream size : 2.98 GiB (93%)
Default : Yes
Forced : No

Audio
ID : 2
Format : AC-3
Format/Info : Audio Coding 3
Mode extension : CM (complete main)
Format settings, Endianness : Big
Codec ID : A_AC3
Duration : 2h 0mn
Bit rate mode : Constant
Bit rate : 192 Kbps
Channel(s) : 2 channels
Channel positions : Front: L R
Sampling rate : 48.0 KHz
Compression mode : Lossy
Stream size : 166 MiB (5%)
Language : Russian
Default : Yes
Forced : No
скриншот  скриншот  скриншот  
pb.wtf



Скачать Банкир через торрент https://i112.fastpic.ru/big/2020/0528/8f/71c6f08a745e6fefa78cb5a593f33b8f.jpeg Скачать фильм Банкир через торрент бесплантно в хорошем качестве О фильме: Бернард Гаррет прошел суровую школу жизни и отлично понимал, как тяжело темнокожему парню пробиться в большой бизнес, где всем ... 7 10 6
Торрент: Зарегистрирован [2020-05-28 05:49] · скачан: 276 раз
Статус: T временная
Размер: 3.21 GB
Как cкачать? Как скачать Банкир через торрент | qTorrent

% Раздел Тема Автор DL S | L
T Фильмы (WEB-DL 720p, 1080p) [ 9.43 GB ] Банкир / The Banker [2020 биография WEB-DL 1080p] [MVO] + [VO] killermax2013 Скачать
6 | 0
Фильмы 2019-2020 [DVDrip, WEB-DLRip, HDrip] (DUB, MVO) [ 1.45 GB ] Банкир / The Banker [2020 биография WEB-DLRip-AVC] [MVO] - ExKinoRay Enigma2010 Скачать
164 | 0
Фильмы 2019-2020 [DVDrip, WEB-DLRip, HDrip] (DUB, MVO) [ 1.39 GB ] Банкир / The Banker [2020 биография WEB-DLRip-AVC] [MVO] killermax2013 Скачать
6 | 0

28-11-2019 20:33  

Отключить всю рекламу на сайте

29-05-2020 17:55 Банкир Скачать торрент  

Годный фильмец! рекомендую под вечерок pb.wtf



    Дорогой пользователь! Огромная просьба, поблагодарите релизера, оцените раздачу и оставьте свои комментарий, если Вы скачали Банкир через торрент бесплатно! Внесите свою лепту в развитие PiratBit!
    Комментировать посты могут только пользователи прошедшие не сложную регистрацию
    Показать сообщения:    

    Банкир через торрент
    Скачать бесплатно Банкир
    Банкир скачать торрент
    Банкир смотреть онлайн
    Cкачать фильм Банкир бесплатно
    Банкир скачать торрент в хорошем качестве
    Банкир смотреть онлайн бесплатно в хорошем качестве


    Вы не можете начинать темы
    Вы не можете отвечать на сообщения
    Вы не можете редактировать свои сообщения
    Вы не можете удалять свои сообщения
    Вы не можете голосовать в опросах
    Вы не можете прикреплять файлы к сообщениям
    Вы можете скачивать файлы