1 сезон

3 сезон

iTunes

1

Line

MVO

iTunes

13

1 сезон

RePack

30

Deluxe

pack

Лицензия

ВАЖНО

ИГРА 18+

pack

RePack

MK11

RePack

jed

RePack

fifa19

RePack

RDR2

RePack

NEED FOR SPEED™ PAYBACK

4 сезон

9 сезон

Бесстыжие 9 сезон

Все сериалы

все сериалы на PB.wtf

RePack

FAR CRY 5

Anonymous, добрый день, мы катастрофически не успеваем собрать деньги на оплату серверов, помогите нам пожалуйста 5,10,15р., для нас важна любая помощь . В качестве благодарности мы отключим Вам всю рекламу на сайте (укажите свой ник в строку Ваше имя)!

×
  
Magnet ссылка

Пила: Начало / Alive (2018) WEB-DL 1080p | iTunes pb.wtf

Скачать  

28-05-2020 08:31 Пила: Начало Скачать торрент  



Информация о фильме

Название: Пила: Начало

Оригинальное название: Alive

Год выпуска: 2018

Жанр: Ужасы, триллер

Режиссер: Роб Грант

В ролях: Томас Кокерел, Камилла Стоппс, Энгус Макфадьен, Чантал Перрон, Геррик Уинстон, Зои Марлетт, Лиза Моро

О фильме: Тяжело раненые девушка и парень приходят в себя посреди заброшенной психиатрической лечебницы. Они не помнят ни того, как оказались здесь, ни друг друга, ни даже самих себя. И ответы на все вопросы есть лишь у одного человека — садиста-похитителя, который не намерен просто так отпускать своих новых пациентов.



Страна: Канада

Студия: 775 Media Corp, Vamanos Films

Продолжительность: 01:27:45

Перевод: Профессиональный (многоголосый, закадровый) | iTunes

Файл

Качество: WEB-DL 1080p

Контейнер: MKV

Видео: MPEG-4 AVC, 1920x802, 4554 Kbps, 25.000 fps

Аудио: Russian: AC3, 48.0 KHz, 6 ch, 384 kbps - iTunes

Субтитры: Нет

Релиз от:
Оригинальное название переводится как «Живые» и фильм не имеет отношения к франшизе «Пила».
General

Unique ID : 192103322624573344200814663222300336934 (0x9085C10FB4927A9BE18DF421B2E96326)

Complete name : ALIVE_2018_WEB-DL_1080p-BLUEBIRD.mkv

Format : Matroska

Format version : Version 4 / Version 2

File size : 3.03 GiB

Duration : 1 h 27 min

Overall bit rate : 4 941 kb/s

Encoded date : UTC 2020-05-27 18:15:16

Writing application : mkvmerge v43.0.0 ('The Quartermaster') 64-bit

Writing library : libebml v1.3.10 + libmatroska v1.5.2

Cover : Yes

Attachments : cover.jpg

Video

ID : 1

Format : AVC

Format/Info : Advanced Video Codec

Format profile : High@L4

Format settings, CABAC : Yes

Format settings, RefFrames : 5 frames

Codec ID : V_MPEG4/ISO/AVC

Duration : 1 h 27 min

Bit rate : 4 554 kb/s

Width : 1 920 pixels

Height : 802 pixels

Display aspect ratio : 2.40:1

Frame rate mode : Constant

Frame rate : 25.000 FPS

Color space : YUV

Chroma subsampling : 4:2:0

Bit depth : 8 bits

Scan type : Progressive

Bits/(Pixel*Frame) : 0.118

Stream size : 2.79 GiB (92%)

Language : English

Default : Yes

Forced : No

Color range : Limited

Color primaries : BT.709

Transfer characteristics : BT.709

Matrix coefficients : BT.709

Audio

ID : 2

Format : AC-3

Format/Info : Audio Coding 3

Format settings, Endianness : Big

Codec ID : A_AC3

Duration : 1 h 27 min

Bit rate mode : Constant

Bit rate : 384 kb/s

Channel(s) : 6 channels

Channel positions : Front: L C R, Side: L R, LFE

Sampling rate : 48.0 kHz

Frame rate : 31.250 FPS (1536 SPF)

Bit depth : 16 bits

Compression mode : Lossy

Stream size : 241 MiB (8%)

Title : [MVO] DD 5.1 @ 384 kbps (iTunes)

Language : Russian

Service kind : Complete Main

Default : Yes

Forced : No

Menu

00:00:00.000 : en:Глава 1

00:08:37.600 : en:Глава 2

00:16:41.200 : en:Глава 3

00:24:48.960 : en:Глава 4

00:33:17.520 : en:Глава 5

00:41:32.960 : en:Глава 6

00:49:45.320 : en:Глава 7

00:57:49.640 : en:Глава 8

01:06:08.920 : en:Глава 9

01:14:17.840 : en:Глава 10
pb.wtf



Торрент не зареган: Не зарегистрирован ||
Добавлен: 2020-05-28 08:31
Скачано: 0 раз
% Раздел Тема Автор DL S | L
Фильмы (WEB-DL 720p, 1080p) [ 3.03 GB ] Пила: Начало / Alive [2018 WEB-DL 1080p] MVO bober100 Скачать
6 | 0

28-11-2019 20:33  

Отключить всю рекламу на сайте

20-07-2021 10:38 Пила: Начало Скачать торрент  

Топик был перенесен из форума Релизы по Парсеру [Игры, Сериалы и Фильмы и другое...] в форум Архив


XLASERpb.wtf



    Дорогой пользователь! Огромная просьба, поблагодарите релизера, оцените раздачу и оставьте свои комментарий, если Вы скачали Пила: Начало через торрент бесплатно! Внесите свою лепту в развитие PiratBit!
    Комментировать посты могут только пользователи прошедшие не сложную регистрацию
    Показать сообщения:    

    Пила: Начало через торрент
    Скачать бесплатно Пила: Начало
    Пила: Начало скачать торрент
    Пила: Начало смотреть онлайн
    Cкачать фильм Пила: Начало бесплатно
    Пила: Начало скачать торрент в хорошем качестве
    Пила: Начало смотреть онлайн бесплатно в хорошем качестве


    Вы можете начинать темы
    Вы можете отвечать на сообщения
    Вы не можете редактировать свои сообщения
    Вы не можете удалять свои сообщения
    Вы не можете голосовать в опросах
    Вы не можете прикреплять файлы к сообщениям
    Вы можете скачивать файлы