Ссылка на приватное зеркало всего за 1$. Внимание количество ограничено!!!

iTunes

iTunes

iTunes

1

iTunes

iTunes

iTunes

WEBRip

iTunes

30
pack

$ от Little Big

ВАЖНО

!!Акция!!

Alien_RageХит недели

RePack

Resident Evil 21

ИГРА 18+

pack

RePack

jed

!!Акция!!

Alien_Rage

RePack

fifa19

RePack

Assassins Creed: Odyssey

RePack

NEED FOR SPEED™ PAYBACK

4 сезон

9 сезон

Бесстыжие 9 сезон

Все сериалы

все сериалы на PB.wtf

RePack

FAR CRY 5
  

Аванпост (Егор Баранов) [2019, Триллер, фантастика, боевик, BDRip-AVC] Не требуется [Русский] [Лицензия] - ExKinoRay pb.wtf

Аванпост через торрент pb.wtf

Раздают: 472 [ 3 MB/s ] Качают: 11 [ 0 KB/s ]
Размер: 2 GB | Добавлен: 2 мес. 7 д. назад | Торрент скачан:671 раз
Скачать  

29-05-2020 01:50 Аванпост Скачать торрент  

Название: Аванпост
Год выхода: 2019
Жанр: Триллер, фантастика, боевик
Режиссер: Егор Баранов
В ролях: Лукерья Ильяшенко, Пётр Фёдоров, Светлана Иванова, Алексей Чадов, Ксения Кутепова, Константин Лавроненко, Филипп Авдеев, Артем Маркарьян, Сергей Годин, Артём Ткаченко

О фильме: В недалеком будущем что-то произошло. Связь с большей частью населенных пунктов Земли оборвалась. Космонавты передали с орбиты, что видят сверху небольшое пятно в Восточной Европе, по своим очертаниям напоминающее круг. То, что военные находят за границей этого круга, шокирует. В магазинах, в автомобилях, на дорогах, в зданиях больниц и вокзалов, повсюду — следы столкновений. Кто или что уничтожает все живое? И как долго продержится последний аванпост человечества?

rating

Страна: Россия
Студия: 1-2-3 Production, TNT-Premier, Канал ТВ-3
Продолжительность: 02:07:30
Перевод: Не требуется | Лицензия

Формат: MKV
Качество: BDRip-AVC
Видео: MPEG-4 AVC, 1024x428 (2.40:1), 23.976 fps, 1792 Kb/s, 0.171 bit/pixel
Аудио: 48 kHz, AC3, 5.1, 448 Kbps | RUS |
Субтитры: Русские (форс., полные (Enigma))
General
Unique ID : 194912748725648193573097736831693762956 (0x92A2D476619C097E891C199B8008318C)
Complete name : F:\The.Blackout.2019.BDRip.AVC.ExKinoRay.mkv
Format : Matroska
Format version : Version 2
File size : 2.00 GiB
Duration : 2 h 7 min
Overall bit rate : 2 242 kb/s
Movie name : Аванпост 2019 from ExKinoRay
Encoded date : UTC 2020-05-28 22:55:52
Writing application : mkvmerge v5.6.0 ('Kenya Kane') built on May 27 2012 16:44:04
Writing library : libebml v1.2.3 + libmatroska v1.3.0
Attachments : front.jpg

Video
ID : 1
Format : AVC
Format/Info : Advanced Video Codec
Format profile : High@L4.1
Format settings, CABAC : Yes
Format settings, ReFrames : 12 frames
Codec ID : V_MPEG4/ISO/AVC
Duration : 2 h 7 min
Bit rate : 1 792 kb/s
Width : 1 024 pixels
Height : 428 pixels
Display aspect ratio : 2.40:1
Frame rate mode : Constant
Frame rate : 23.976 (23976/1000) FPS
Color space : YUV
Chroma subsampling : 4:2:0
Bit depth : 8 bits
Scan type : Progressive
Bits/(Pixel*Frame) : 0.171
Stream size : 1.56 GiB (78%)
Title : Enigma
Writing library : x264 core 152 r2851 ba24899
Encoding settings : cabac=1 / ref=12 / deblock=1:-2:-2 / analyse=0x3:0x113 / me=umh / subme=10 / psy=1 / psy_rd=1.07:0.10 / mixed_ref=1 / me_range=32 / chroma_me=1 / trellis=2 / 8x8dct=1 / cqm=0 / deadzone=21,11 / fast_pskip=0 / chroma_qp_offset=-3 / threads=12 / lookahead_threads=3 / sliced_threads=0 / nr=0 / decimate=0 / interlaced=0 / bluray_compat=0 / constrained_intra=0 / bframes=10 / b_pyramid=2 / b_adapt=2 / b_bias=0 / direct=3 / weightb=1 / open_gop=0 / weightp=2 / keyint=240 / keyint_min=23 / scenecut=40 / intra_refresh=0 / rc=2pass / mbtree=0 / bitrate=1792 / ratetol=1.0 / qcomp=0.60 / qpmin=0 / qpmax=51 / qpstep=4 / cplxblur=20.0 / qblur=0.5 / ip_ratio=1.40 / pb_ratio=1.30 / aq=1:1.00
Language : English
Default : Yes
Forced : No

Audio
ID : 2
Format : AC-3
Format/Info : Audio Coding 3
Mode extension : CM (complete main)
Format settings, Endianness : Big
Codec ID : A_AC3
Duration : 2 h 7 min
Bit rate mode : Constant
Bit rate : 448 kb/s
Channel(s) : 6 channels
Channel positions : Front: L C R, Side: L R, LFE
Sampling rate : 48.0 kHz
Frame rate : 31.250 FPS (1536 spf)
Compression mode : Lossy
Stream size : 409 MiB (20%)
Title : Blu-Ray
Language : Russian
Default : Yes
Forced : No

Text #1
ID : 3
Format : UTF-8
Codec ID : S_TEXT/UTF8
Codec ID/Info : UTF-8 Plain Text
Title : Forced
Language : Russian
Default : Yes
Forced : No

Text #2
ID : 4
Format : UTF-8
Codec ID : S_TEXT/UTF8
Codec ID/Info : UTF-8 Plain Text
Title : Full (Enigma)
Language : Russian
Default : No
Forced : No

Menu
00:00:00.000 : en:Chapter 01
00:09:30.278 : en:Chapter 02
00:19:34.423 : en:Chapter 03
00:29:52.666 : en:Chapter 04
00:40:16.581 : en:Chapter 05
00:50:11.342 : en:Chapter 06
01:01:00.031 : en:Chapter 07
01:10:54.876 : en:Chapter 08
01:22:56.471 : en:Chapter 09
01:34:43.511 : en:Chapter 10
01:46:17.329 : en:Chapter 11
02:04:02.727 : en:Chapter 12


Релиз от:

Автор релиза: pb.wtf



Скачать Аванпост через торрент https://img11.lostpic.net/2020/05/24/e3a71af446c994a54a4b64b48cecb29b.jpg Скачать фильм Аванпост через торрент бесплантно в хорошем качестве О фильме: В недалеком будущем что-то произошло. Связь с большей частью населенных пунктов Земли оборвалась. Космонавты передали с орбиты, ... 10 10 8
Info! Золотая раздача, скачанное не засчитывается.
Торрент: Зарегистрирован [2020-05-29 01:50] · скачан: 671 раз
Статус: √ проверено
Размер: 2 GB
Как cкачать? Как скачать Аванпост через торрент | qTorrent

28-11-2019 20:33  

Отключить всю рекламу на сайте

30-05-2020 07:20 Аванпост Скачать торрент  

Уже лучше, посмотреть можно. Хотя конечно есть над чем поработатть!pb.wtf



30-05-2020 09:51 Аванпост Скачать торрент  

"Спутник" гораздо круче!pb.wtf



    Дорогой пользователь! Огромная просьба, поблагодарите релизера, оцените раздачу и оставьте свои комментарий, если Вы скачали Аванпост через торрент бесплатно! Внесите свою лепту в развитие PiratBit!
    Комментировать посты могут только пользователи прошедшие не сложную регистрацию
    Показать сообщения:    

    Аванпост через торрент
    Скачать бесплатно Аванпост
    Аванпост скачать торрент
    Аванпост смотреть онлайн
    Cкачать фильм Аванпост бесплатно
    Аванпост скачать торрент в хорошем качестве
    Аванпост смотреть онлайн бесплатно в хорошем качестве


    Вы не можете начинать темы
    Вы не можете отвечать на сообщения
    Вы не можете редактировать свои сообщения
    Вы не можете удалять свои сообщения
    Вы не можете голосовать в опросах
    Вы не можете прикреплять файлы к сообщениям
    Вы можете скачивать файлы