2 сезон

iTunes

MVO

1

2 сезон

iTunes

iTunes

1 сезон

RePack

30

Новинка

ВАЖНО

ИГРА 18+

pack

RePack

MK11
pack

Легкие деньги

RePack

jed

RePack

fifa19

RePack

RDR2

RePack

NEED FOR SPEED™ PAYBACK

4 сезон

9 сезон

Бесстыжие 9 сезон

Все сериалы

все сериалы на PB.wtf

RePack

FAR CRY 5

Anonymous, доброй ночи, мы не успеваем собрать деньги на оплату серверов за декабрь и январь, помогите нам пожалуйста в это трудное время. В качестве благодарности мы отключим Вам всю рекламу на сайте (укажите свой ник в строку Ваше имя)!

×
  
Magnet ссылка

Онг-Бак: Тайский воин / Ong-Bak: The Thai Warrior (Прачья Пинкаю) [2003 г., Боевик, триллер, криминал, приключения, BDRip 720p / 60 FPS, Профессиональный (двухголосый)] от R.G. HD-Films pb.wtf

Онг-Бак: Тайский воин через торрент pb.wtf

Размер: 4.72 GB | Добавлен: 7 мес. назад | Торрент скачан:70 раз
Скачать  

29-05-2020 15:45 Онг-Бак: Тайский воин Скачать торрент  

Онг-Бак: Тайский воин / Ong-Bak: The Thai Warrior
Год выпуска: : 2003
Страна: : Тайланд
Жанр: : Боевик, приключения, криминал, триллер
Продолжительность: 01:44:29
Перевод: Профессиональный (Двухголосый закадровый)
Субтитры: Russian, English

Режиссер: Прачья Пинкаю

Премьера в мире: 21 января 2003

rating

В ролях: Петчтай Вонгкамлао, Тони Джа, Пумвари Йодкамол, Сухао Понгвилай, Чумпхорн Тепфитак, Чатевут Ватчаракхун, Ваннакит Сириопут, Рунграви Баридзиндакул, Чаттхапонг Пантанаункул, Нудхапол Асавабхахин

Сюжет фильма: Действие фильма начинается в небольшой деревушке Нанг Праду, расположенной на северо-востоке Таиланда, жителей которой постигает несчастье — пропала голова статуи Будды по имени Онг-Бак. Для того, чтобы вернуть статую, требуется человек, обладающий не только умом, но и физической силой.
Единственный, кто отвечает этим требованиям, — это Тинг перенявший искусство Муай Тай (тайский бокс) у почитаемого в деревне монаха.


Качество видео: BDRip 720p / 60 FPS
Формат: MKV
Видео кодек: H.264
Аудио кодек: AC3
Видео : x264, 1280 x 696 ( 1,85:1 ), 6077 kbps, 60,000 fps, ( 0.114 bpp)
Аудио : Русский, AC-3, 48.0 KHz, 6 ch, 384 Kbps
Релиз от:

скриншот   скриншот   скриншот   скриншот   скриншот   скриншот  Автор рипа: slaventi-69
Общее
Уникальный идентификатор : 203946413074252160585746655237458420790 (0x996EA6808CA0B6D982DEEE42F9E8E436)
Полное имя : F:\Ong-bak.(2003).BDRip.720p.(60 Fps).mkv
Формат : Matroska
Версия формата : Version 4
Размер файла : 4,72 Гбайт
Продолжительность : 1 ч. 44 м.
Общий поток : 6465 Кбит/сек
Название фильма : Онг Бак / Ong-bak (2003) BDRip 720p (60 Fps)
Дата кодирования : UTC 2020-05-22 17:35:26
Программа кодирования : mkvmerge v12.0.0 ('Trust / Lust') 64bit
Библиотека кодирования : libebml v1.3.4 + libmatroska v1.4.5

Видео
Идентификатор : 1
Формат : AVC
Формат/Информация : Advanced Video Codec
Профиль формата : High@L4.1
Настройки формата : CABAC / 8 Ref Frames
Параметр CABAC формата : Да
Параметр RefFrames формата : 8 кадров
Идентификатор кодека : V_MPEG4/ISO/AVC
Продолжительность : 1 ч. 44 м.
Битрейт : 6077 Кбит/сек
Ширина : 1280 пикселей
Высота : 696 пикселей
Соотношение сторон : 1,85:1
Режим частоты кадров : Постоянный
Частота кадров : 60,000 кадров/сек
Цветовое пространство : YUV
Субдискретизация насыщенности : 4:2:0
Битовая глубина : 8 бит
Тип развёртки : Прогрессивная
Бит/(Пиксели*Кадры) : 0.114
Размер потока : 4,44 Гбайт (94%)
Заголовок : slaventi-69 ( R.G. HD-Films | 60 fps )
Библиотека кодирования : x264 core 130 r2273 b3065e6
Настройки программы : cabac=1 / ref=8 / deblock=1:-1:-1 / analyse=0x3:0x113 / me=umh / subme=9 / psy=1 / psy_rd=1.00:0.00 / mixed_ref=1 / me_range=28 / chroma_me=1 / trellis=2 / 8x8dct=1 / cqm=0 / deadzone=21,11 / fast_pskip=0 / chroma_qp_offset=-2 / threads=8 / lookahead_threads=1 / sliced_threads=0 / nr=0 / decimate=1 / interlaced=0 / bluray_compat=0 / constrained_intra=0 / bframes=5 / b_pyramid=2 / b_adapt=2 / b_bias=0 / direct=3 / weightb=1 / open_gop=0 / weightp=2 / keyint=600 / keyint_min=25 / scenecut=40 / intra_refresh=0 / rc=crf / mbtree=0 / crf=19.0 / qcomp=0.60 / qpmin=0 / qpmax=69 / qpstep=4 / ip_ratio=1.40 / pb_ratio=1.30 / aq=1:1.00
Язык : Thai
Default : Да
Forced : Нет

Аудио
Идентификатор : 2
Формат : AC-3
Формат/Информация : Audio Coding 3
Коммерческое название : Dolby Digital
Идентификатор кодека : A_AC3
Продолжительность : 1 ч. 44 м.
Вид битрейта : Постоянный
Битрейт : 384 Кбит/сек
Каналы : 6 каналов
Channel layout : L R C LFE Ls Rs
Частота : 48,0 КГц
Частота кадров : 31,250 кадров/сек (1536 SPF)
Битовая глубина : 16 бит
Метод сжатия : С потерями
Размер потока : 287 Мбайт (6%)
Заголовок : DVO
Язык : Russian
ServiceKind/String : Complete Main
Default : Да
Forced : Нет

Текст #1
Идентификатор : 3
Формат : UTF-8
Идентификатор кодека : S_TEXT/UTF8
Идентификатор кодека/Информация : UTF-8 Plain Text
Продолжительность : 1 ч. 37 м.
Битрейт : 43 бит/сек
ElementCount : 616
Размер потока : 31,3 Кбайт (0%)
Язык : Russian
Default : Нет
Forced : Нет

Текст #2
Идентификатор : 4
Формат : UTF-8
Идентификатор кодека : S_TEXT/UTF8
Идентификатор кодека/Информация : UTF-8 Plain Text
Продолжительность : 1 ч. 37 м.
Битрейт : 24 бит/сек
ElementCount : 605
Размер потока : 17,6 Кбайт (0%)
Язык : English
Default : Нет
Forced : Нет

Просьба к переливающим на другие сайты, в оформлении указывайте пожалуйста авторство группы R.G. HD-Films pb.wtf



Скачать Онг-Бак: Тайский воин через торрент http://lostpic.net/images/37f559f923b70e8fdf390836c1c065ea.jpg Скачать фильм Онг-Бак: Тайский воин через торрент бесплантно в хорошем качестве В ролях: Петчтай Вонгкамлао, Тони Джа, Пумвари Йодкамол, Сухао Понгвилай, Чумпхорн Тепфитак, Чатевут Ватчаракхун, Ваннакит Сириопут, ... 9.4 10 15
Info! Золотая раздача, скачанное не засчитывается.
Торрент: Зарегистрирован [2020-05-29 15:45] · скачан: 70 раз
Статус: √ проверено
Размер: 4.72 GB
Как cкачать? Как скачать Онг-Бак: Тайский воин через торрент | UTorrent

28-11-2019 20:33  

Отключить всю рекламу на сайте

29-05-2020 17:57 Онг-Бак: Тайский воин Скачать торрент  

Опять без объяснений Рейтинг: 5.5 / 10 (2)
Тогда так, заканчиваю с Заказом и больше не буду портить себе и кому то нервы.pb.wtf



30-05-2020 18:46 Онг-Бак: Тайский воин Скачать торрент  

Спасибо большое за фильм, с удовольствием пересмотрел в таком качестве!!! Картинка очень реальная, как будто всё сейчас и перед тобой происходит.pb.wtf



    Дорогой пользователь! Огромная просьба, поблагодарите релизера, оцените раздачу и оставьте свои комментарий, если Вы скачали Онг-Бак: Тайский воин через торрент бесплатно! Внесите свою лепту в развитие PiratBit!
    Комментировать посты могут только пользователи прошедшие не сложную регистрацию
    Показать сообщения:    

    Онг-Бак: Тайский воин через торрент
    Скачать бесплатно Онг-Бак: Тайский воин
    Онг-Бак: Тайский воин скачать торрент
    Онг-Бак: Тайский воин смотреть онлайн
    Cкачать фильм Онг-Бак: Тайский воин бесплатно
    Онг-Бак: Тайский воин скачать торрент в хорошем качестве
    Онг-Бак: Тайский воин смотреть онлайн бесплатно в хорошем качестве


    Вы не можете начинать темы
    Вы не можете отвечать на сообщения
    Вы не можете редактировать свои сообщения
    Вы не можете удалять свои сообщения
    Вы не можете голосовать в опросах
    Вы не можете прикреплять файлы к сообщениям
    Вы можете скачивать файлы