Ссылка на приватное зеркало всего за 1$. Внимание количество ограничено!!!

iTunes

iTunes

iTunes

1

iTunes

iTunes

iTunes

iTunes

iTunes

30
pack

$ от Little Big

ВАЖНО

!!Акция!!

Alien_RageХит недели

RePack

Resident Evil 21

ИГРА 18+

pack

RePack

jed

!!Акция!!

Alien_Rage

RePack

fifa19

RePack

Assassins Creed: Odyssey

RePack

NEED FOR SPEED™ PAYBACK

4 сезон

9 сезон

Бесстыжие 9 сезон

Все сериалы

все сериалы на PB.wtf

RePack

FAR CRY 5
  

Всё ещё мертвы / Замрите / Dead Still / Сезон: 1 / Серии: 1-6 из 6 (Имоджен Мерфи, Крэйг Дэвид Уоллес) [2020, Детектив, комедия, криминал, WEB-DLRip] [MVO] (TVShows) pb.wtf

Всё ещё мертвы через торрент pb.wtf

Размер: 4.03 GB | Добавлен: 17 д. назад | Торрент скачан:22 раза
Скачать  

31-05-2020 07:12 Всё ещё мертвы Скачать торрент  

Всё ещё мертвы / Замрите / Dead Still Год выхода: 2020
Жанр: Детектив, комедия, криминал
Страна: Ирландия, Канада, Германия
Продолжительность: ~00:44:00
Перевод: Профессиональный (многоголосый закадровый) TVShows

Режиссер: Имоджен Мерфи, Крэйг Дэвид Уоллес

В ролях: Майкл Смайли, Джимми Смоллхорн, Эйлин О’Хиггинс, Эйдан О’Харе, Керр Логан, Питер Кэмпион, Риз Данлоп и др.

О фильме:

Фотограф Брок Бленнерхассет специализируется на посмертных снимках, которые ему заказывают родственники покойных – последний писк викторианской моды. Однако полиция Дублина начинает подозревать, что именно Брок убил всех тех, кого позже запечатлел. В попытке спасти свою репутацию фотограф организует собственное расследование.

rating

Файл

Качество: WEB-DLRip
Формат: AVI
Видео кодек: XvID
Аудио кодек: AC3
Видео: XviD, ~ 1500 Кбит/с, 720x400
Аудио: 48 kHz, AC3 , 2 channels, 192 kbps ||
General
Complete name : G:\Dead.Still.S01.WEB-DLRip.TVShows\Dead.Still.S01E01.WEB-DLRip.TVShows.avi
Format : AVI
Format/Info : Audio Video Interleave
File size : 529 MiB
Duration : 44mn 35s
Overall bit rate : 1 660 Kbps
Writing application : Lavf56.36.100

Video
ID : 0
Format : xvid
Codec ID : xvid
Duration : 44mn 35s
Bit rate : 1 394 Kbps
Width : 720 pixels
Height : 400 pixels
Display aspect ratio : 16:9
Frame rate : 25.000 fps
Bits/(Pixel*Frame) : 0.194
Stream size : 444 MiB (84%)

Audio
ID : 1
Format : AC-3
Format/Info : Audio Coding 3
Mode extension : CM (complete main)
Format settings, Endianness : Big
Codec ID : 2000
Duration : 44mn 35s
Bit rate mode : Constant
Bit rate : 192 Kbps
Channel(s) : 2 channels
Channel positions : Front: L R
Sampling rate : 48.0 KHz
Bit depth : 16 bits
Compression mode : Lossy
Stream size : 61.2 MiB (12%)
Alignment : Aligned on interleaves
скриншот  скриншот  скриншот  
(1) остановить скачивание,
(2) удалить старый торрент у себя из клиента (старые серии удалять не надо),
(3) скачать новый торрент и запустить его у себя в клиенте вместо старого, при этом указать клиенту путь в старую папку куда и должно происходить скачивание новых серий.
Ваш клиент при этом должен произвести хеширование (проверку) старой папки (если не производит сам - помогите ему сделать это), и будет докачивать только те серии которых у вас ещё нет. Старые серии при этом не удаляются, а продолжают раздаваться!
Eсли вы уже удалили старые серии, то предотвратить повторную закачку старых серий можно, отжав галочку в соответсвующих местах при запуске нового торрента. По возможности, желательно не удалять старые серии как можно дольше чтобы релизёр не столько продолжал раздавать старые серии, а смог сконцентрироваться на новых.
pb.wtf



Скачать Всё ещё мертвы через торрент https://i2.imageban.ru/out/2020/05/25/04b6b2ddb37f5bcb8e737959784283a9.jpg Скачать фильм Всё ещё мертвы через торрент бесплантно в хорошем качестве О фильме:Фотограф Брок Бленнерхассет специализируется на посмертных снимках, которые ему заказывают родственники покойных – последний писк ... 10 10 2
Торрент: Зарегистрирован [2020-06-24 11:05] · скачан: 22 раз
Статус: √ проверено
Размер: 4.03 GB
Как cкачать? Как скачать Всё ещё мертвы через торрент | qTorrent

% Раздел Тема Автор DL S | L
Зарубежные сериалы [ 9.01 GB ] Всё ещё мертвы / Замрите / Dead Still / Сезон: 1 / Серии: 1-6 из 6 [2020 WEB-DL 720p] [MVO] killermax2013 Скачать
1 | 0
Зарубежные сериалы [ 6.42 GB ] Всё ещё мертвы / Замрите / Dead Still / Сезон: 1 / Серии: 1-6 из 6 [2020 WEBRip 720p] [MVO] killermax2013 Скачать
2 | 0

28-11-2019 20:33  

Отключить всю рекламу на сайте

    Дорогой пользователь! Огромная просьба, поблагодарите релизера, оцените раздачу и оставьте свои комментарий, если Вы скачали Всё ещё мертвы через торрент бесплатно! Внесите свою лепту в развитие PiratBit!
    Комментировать посты могут только пользователи прошедшие не сложную регистрацию
    Показать сообщения:    

    Всё ещё мертвы через торрент
    Скачать бесплатно Всё ещё мертвы
    Всё ещё мертвы скачать торрент
    Всё ещё мертвы смотреть онлайн
    Cкачать фильм Всё ещё мертвы бесплатно
    Всё ещё мертвы скачать торрент в хорошем качестве
    Всё ещё мертвы смотреть онлайн бесплатно в хорошем качестве


    Вы не можете начинать темы
    Вы не можете отвечать на сообщения
    Вы не можете редактировать свои сообщения
    Вы не можете удалять свои сообщения
    Вы не можете голосовать в опросах
    Вы не можете прикреплять файлы к сообщениям
    Вы можете скачивать файлы