2 сезон

iTunes

MVO

1

2 сезон

iTunes

iTunes

1 сезон

RePack

30

Новинка

ВАЖНО

ИГРА 18+

pack

RePack

MK11
pack

Легкие деньги

RePack

jed

RePack

fifa19

RePack

RDR2

RePack

NEED FOR SPEED™ PAYBACK

4 сезон

9 сезон

Бесстыжие 9 сезон

Все сериалы

все сериалы на PB.wtf

RePack

FAR CRY 5

Anonymous, добрый вечер, мы не успеваем собрать деньги на оплату серверов за декабрь и январь, помогите нам пожалуйста в это трудное время. В качестве благодарности мы отключим Вам всю рекламу на сайте (укажите свой ник в строку Ваше имя)!

×
  
Magnet ссылка

Секреты гравитации: По стопам Альберта Эйнштейна в 3Д / The Secrets of Gravity: In the Footsteps of Albert Einstein 3D (Питер Попп / Peter Popp) [2016, мультфильм, познавательный, приключения, семейный, BDRip, 1080p] OverUnder / Вертикальная стереопа pb.wtf

Секреты гравитации: По стопам Альберта Эйнштейна в 3Д через торрент pb.wtf

Размер: 3.69 GB | Добавлен: 7 мес. назад | Торрент скачан:17 раз
Скачать  

31-05-2020 10:46 Секреты гравитации: По стопам Альберта Эйнштейна в 3Д Скачать торрент  

Секреты гравитации: По стопам Альберта Эйнштейна / The Secrets of Gravity: In the Footsteps of Albert Einstein

Год выпуска: 2016
Страна: Германия (Softmachine Immersive Productions, Figment Effects Shop, ARRI Media Productions, Konica Minolta Planetarium, Metaspace)
Жанр: мультфильм, познавательный, приключения, семейный
Продолжительность: 00:45:03

Перевод: Любительский одноголосый закадровый - NoNamed (перевод любительский - Ash61)
Русские субтитры: нет
Режиссер: Питер Попп / Peter Popp

Роли озвучивали: Wayne Forester (ALBY), Emma Tate (LIMBRADUR / Luke), Glen McCready (Narrator)

Описание: Исключительное приключение в 360°- фильме для полнокупольных кинотеатров об открытиях Альберта Эйнштейна, об очаровании нашей Вселенной и вере в наши мечты.
Робот АЛБИ берёт с собой юного Люка в волшебное путешествие открытий во времени и пространстве, во время которого они не только раскрывают секреты гравитации, но и многое узнают о дружбе и воображении - ведь у Люка и АЛБИ есть и их собственные секреты.

Сэмпл: http://sendfile.su/1563369

Качество: BDrip, 1080p
Контейнер: MKV
Формат 3D: OverUnder / Вертикальная стереопара
Порядок ракурсов: левый ракурс первый
Видео кодек: x264
Аудио кодек: AC3
Видео: AVC / High@L5.0 / 23,976 fps / 1920х2160 / 10,2 Мбит/сек
Аудио: Русский / AC3 / 48 KHz / 5.1 ch / 640 Кбит/сек(VO - NoNamed)(Ash61)
Аудио 2: Английский / AC3 / 48 KHz / 5.1 ch / 640 Кбит/сек

ВНИМАНИЕ ! На встроенных ТВ-плеерах работать не будет!!!

ТВ Samsung в названии которого есть надпись Ultra HD , и LG Ultra HD 800 серии, LG C6P, Xiaomi Mi TV 2 воспроизводят полные стереопары встроенными плеерами
Железные плееры на которых воспроизводятся полные стереопары:Popcorn C-200, Popcorn a-400, Dune HD Smart D1 , Dune HD DUO , Dune HD Smart H1 , Dune HD Smart B1 , Dune HD Max , Dune HD TV-303D, Dune HD TV-102, Dune HD Base 3D, Philips HMP7001, Aura HD, MECOOL BB2, Zidoo x9s, Lake I Cloud, MiBox 3
Чтобы изображение было на весь экран в плеере выставляем, если рип 1920х1600 - то выставляем 2.35:1 , если 1920х2160 - то выставляем 16:9
Общее
Уникальный идентификатор : 229363985283189972168821431195051860966 (0xAC8DE590E3B8B4BA8881DA13929DA3E6)
Полное имя : E:\видео\The Secrets of Gravity In the Footsteps of Albert Einstein.Rip by SeRoGa00.mkv
Формат : Matroska
Версия формата : Version 2
Размер файла : 3,69 Гбайт
Продолжительность : 45 м.
Общий поток : 11,7 Мбит/сек
Дата кодирования : UTC 2020-05-31 09:44:54
Программа кодирования : mkvmerge v3.4.0 ('Rapunzel') сборка от May 15 2010 09:38:20
Библиотека кодирования : libebml v0.8.0 + libmatroska v0.9.0

Видео
Идентификатор : 1
Формат : AVC
Формат/Информация : Advanced Video Codec
Профиль формата : High@L5.0
Параметр CABAC формата : Да
Параметр ReFrames формата : 4 кадра
Идентификатор кодека : V_MPEG4/ISO/AVC
Продолжительность : 45 м.
Битрейт : 10,2 Мбит/сек
Ширина : 1920 пикселей
Высота : 2160 пикселей
Соотношение сторон : 0,889
Частота кадров : 23,976 кадра/сек
Цветовое пространство : YUV
Субдискретизация насыщенности : 4:2:0
Битовая глубина : 8 бит
Тип развёртки : Прогрессивная
Бит/(Пиксели*Кадры) : 0.103
Размер потока : 3,21 Гбайт (87%)
Заголовок : Rip by SeRoGa00
Библиотека кодирования : x264 core 157 r2969 d4099dd
Настройки программы : cabac=1 / ref=4 / deblock=1:-3:-3 / analyse=0x3:0x113 / me=umh / subme=10 / psy=1 / psy_rd=1.00:0.15 / mixed_ref=1 / me_range=24 / chroma_me=1 / trellis=2 / 8x8dct=1 / cqm=0 / deadzone=21,11 / fast_pskip=1 / chroma_qp_offset=-3 / threads=18 / lookahead_threads=6 / sliced_threads=0 / nr=0 / decimate=0 / interlaced=0 / bluray_compat=0 / constrained_intra=0 / bframes=10 / b_pyramid=2 / b_adapt=2 / b_bias=0 / direct=3 / weightb=1 / open_gop=0 / weightp=2 / keyint=250 / keyint_min=23 / scenecut=40 / intra_refresh=0 / rc_lookahead=60 / rc=crf / mbtree=1 / crf=16.5 / qcomp=0.60 / qpmin=10 / qpmax=69 / qpstep=4 / vbv_maxrate=40000 / vbv_bufsize=40000 / crf_max=0.0 / nal_hrd=none / filler=0 / ip_ratio=1.40 / aq=1:1.00
Язык : English
Default : Нет
Forced : Нет

Аудио #1
Идентификатор : 2
Формат : AC-3
Формат/Информация : Audio Coding 3
Расширение режима : CM (complete main)
Параметр Endianness формата : Big
Идентификатор кодека : A_AC3
Продолжительность : 45 м.
Вид битрейта : Постоянный
Битрейт : 640 Кбит/сек
Каналы : 6 каналов
Расположение каналов : Front: L C R, Side: L R, LFE
Частота : 48,0 КГц
Битовая глубина : 16 бит
Метод сжатия : С потерями
Размер потока : 206 Мбайт (5%)
Язык : Russian
Default : Да
Forced : Нет

Аудио #2
Идентификатор : 3
Формат : AC-3
Формат/Информация : Audio Coding 3
Расширение режима : CM (complete main)
Параметр Endianness формата : Big
Идентификатор кодека : A_AC3
Продолжительность : 45 м.
Вид битрейта : Постоянный
Битрейт : 640 Кбит/сек
Каналы : 6 каналов
Расположение каналов : Front: L C R, Side: L R, LFE
Частота : 48,0 КГц
Битовая глубина : 16 бит
Метод сжатия : С потерями
Размер потока : 206 Мбайт (5%)
Язык : English
Default : Нет
Forced : Нет

Меню
00:00:00.000 : en:00:00:00.000
00:03:44.640 : en:00:03:44.640
00:10:50.441 : en:00:10:50.441
00:17:54.530 : en:00:17:54.530
00:25:12.760 : en:00:25:12.760
00:31:40.940 : en:00:31:40.940
00:37:33.333 : en:00:37:33.333
00:41:50.007 : en:00:41:50.007
скриншот  

скриншот  

скриншот  

скриншот  

скриншот  

скриншот  

скриншот  

скриншот  
pb.wtf



Скачать Секреты гравитации: По стопам Альберта Эйнштейна в 3Д через торрент https://b.radikal.ru/b40/2005/bc/ba50dfc6f2fa.png Скачать фильм Секреты гравитации: По стопам Альберта Эйнштейна в 3Д через торрент бесплантно в хорошем качестве Описание: Исключительное в 360°- фильме для полнокупольных кинотеатров об открытиях Альберта Эйнштейна, об очаровании нашей ... 5 10 1
Торрент: Зарегистрирован [2020-05-31 10:46] · скачан: 17 раз
Статус: √ проверено
Размер: 3.69 GB
Как cкачать? Как скачать Секреты гравитации: По стопам Альберта Эйнштейна в 3Д через торрент | UTorrent

28-11-2019 20:33  

Отключить всю рекламу на сайте

    Дорогой пользователь! Огромная просьба, поблагодарите релизера, оцените раздачу и оставьте свои комментарий, если Вы скачали Секреты гравитации: По стопам Альберта Эйнштейна в 3Д через торрент бесплатно! Внесите свою лепту в развитие PiratBit!
    Комментировать посты могут только пользователи прошедшие не сложную регистрацию
    Показать сообщения:    

    Секреты гравитации: По стопам Альберта Эйнштейна в 3Д через торрент
    Скачать бесплатно Секреты гравитации: По стопам Альберта Эйнштейна в 3Д
    Секреты гравитации: По стопам Альберта Эйнштейна в 3Д скачать торрент
    Секреты гравитации: По стопам Альберта Эйнштейна в 3Д смотреть онлайн
    Cкачать фильм Секреты гравитации: По стопам Альберта Эйнштейна в 3Д бесплатно
    Секреты гравитации: По стопам Альберта Эйнштейна в 3Д скачать торрент в хорошем качестве
    Секреты гравитации: По стопам Альберта Эйнштейна в 3Д смотреть онлайн бесплатно в хорошем качестве


    Вы не можете начинать темы
    Вы не можете отвечать на сообщения
    Вы не можете редактировать свои сообщения
    Вы не можете удалять свои сообщения
    Вы не можете голосовать в опросах
    Вы не можете прикреплять файлы к сообщениям
    Вы можете скачивать файлы