1 сезон

1 сезон

iTunes

1

КиноПоиск HD

Кинопоиск HD

iTunes

13

1 сезон

RePack

30

Новинка

ВАЖНО

ИГРА 18+

pack

RePack

MK11
pack

Легкие деньги

RePack

jed

RePack

fifa19

RePack

RDR2

RePack

NEED FOR SPEED™ PAYBACK

4 сезон

9 сезон

Бесстыжие 9 сезон

Все сериалы

все сериалы на PB.wtf

RePack

FAR CRY 5
  
Magnet ссылка

Дагон / Dagon (Стюарт Гордон) [2001 г., ужасы, фэнтези, триллер, детектив, HDRip] DVO, AVO (Сербин) pb.wtf

Дагон через торрент pb.wtf

Размер: 2.05 GB | Добавлен: 10 мес. назад | Торрент скачан:9 раз
Скачать  

31-05-2020 10:50 Дагон Скачать торрент  

Дагон / Dagon
Год выпуска: 2001

Страна: Испания

Жанр: Ужасы, фэнтези, триллер, детектив

Продолжительность: 01:37:57

Перевод: Профессиональный (двухголосый), авторский (одноголосый)

Режиссер: Стюарт Гордон

rating

В ролях: Эзра Годден, Франсиско Рабаль, Ракель Мероньо, Макарена Гомес, Брендан Прайс, Биргит Бофарулл, Уксия Бланко, Ферран Лаоз, Хоан Мингуэлл, Альфредо Вилья, Хосе Лифантэ, Хавьер Сандовал, Виктор Баррейра, Фернандо Джил, Хорхе Луис Перез, Игнасио Карреньо, Диего Ерберг, Оскар Гарсия, Хосе Мануэль Торрес, Лидия Гонзалез, Лидия Боссе, Джоан Манель Вадель

Описание: Выброшенные на берег небольшого острова ужасным штормом Пауль и Барбара нашли прибежище в заброшенной рыбацкой деревушке. Когда Барбара неожиданно исчезает среди уродливых и отталкивающих местных жителей, Паулю приходится столкнуться с пугающей действительностью одинокого городка. Пауль решается на жуткое расследование исчезновения Барбары в одиночку среди полного бездействия страшных обитателей деревушки. Но то, что обнаруживает Пауль в результате поисков вселяет страх и ужас и грозит опасностью всему миру.
Экранизация по произведению: Говард Филлипс Лавкрафт «Тень над Иннсмутом».
Доп. информация: В озвучке Сербина присутствует ненормативная лексика
Качество: HDRip
Формат: AVI
Видео: XviD, 2078 Кбит/с, 704x400
Аудио#1: Русский, AC3, 6 ch, 448 Кбит/сек - DVO
Аудио#2: Русский, AC3, 6 ch, 448 Кбит/сек - AVO (Сербин)
Видео
Идентификатор : 0
Формат : MPEG-4 Visual
Профиль формата : Advanced Simple@L5
Настройки формата : BVOP2
Параметр BVOP формата : 2
Параметр QPel формата : Нет
Параметр GMC формата : Без точки перехода
Параметр матрицы формата : Default (H.263)
Идентификатор кодека : XVID
Идентификатор кодека/Подсказка : XviD
Продолжительность : 1 ч. 37 м.
Битрейт : 2078 Кбит/сек
Ширина : 704 пикселя
Высота : 400 пикселей
Соотношение сторон : 16:9
Частота кадров : 23,976 (24000/1001) кадра/сек
Частота кадров в оригинале : 23,976 (23976/1000) кадра/сек
Цветовое пространство : YUV
Субдискретизация насыщенности : 4:2:0
Битовая глубина : 8 бит
Тип развёртки : Прогрессивная
Метод сжатия : С потерями
Бит/(Пиксели*Кадры) : 0.308
Размер потока : 1,42 Гбайт (69%)
Библиотека кодирования : XviD 65

Аудио #1
Идентификатор : 1
Формат : AC-3
Формат/Информация : Audio Coding 3
Коммерческое название : Dolby Digital
Идентификатор кодека : 2000
Продолжительность : 1 ч. 37 м.
Вид битрейта : Постоянный
Битрейт : 448 Кбит/сек
Каналы : 6 каналов
ChannelLayout : L R C LFE Ls Rs
Частота : 48,0 КГц
Частота кадров : 31,250 кадров/сек (1536 SPF)
Метод сжатия : С потерями
Размер потока : 314 Мбайт (15%)
Выравнивание : Разделение по промежуткам
Продолжительность промежутка : 42 мс. (1,00 видеокадр)
Время предзагрузки промежутка : 500 мс.
ServiceKind/String : Complete Main

Аудио #2
Идентификатор : 2
Формат : AC-3
Формат/Информация : Audio Coding 3
Коммерческое название : Dolby Digital
Идентификатор кодека : 2000
Продолжительность : 1 ч. 37 м.
Вид битрейта : Постоянный
Битрейт : 448 Кбит/сек
Каналы : 6 каналов
ChannelLayout : L R C LFE Ls Rs
Частота : 48,0 КГц
Частота кадров : 31,250 кадров/сек (1536 SPF)
Битовая глубина : 16 бит
Метод сжатия : С потерями
Размер потока : 314 Мбайт (15%)
Выравнивание : Разделение по промежуткам
Продолжительность промежутка : 42 мс. (1,00 видеокадр)
Время предзагрузки промежутка : 500 мс.
ServiceKind/String : Complete Main

скриншот   скриншот   скриншот   скриншот  

pb.wtf



Скачать Дагон через торрент https://pic1.kartinco.top/images/12/fumwa.jpg Скачать фильм Дагон через торрент бесплантно в хорошем качестве Описание: Выброшенные на берег небольшого острова ужасным штормом Пауль и Барбара нашли прибежище в заброшенной рыбацкой деревушке. Когда ... 10 10 1
Торрент: Зарегистрирован [2020-05-31 10:50] · скачан: 9 раз
Статус: √ проверено
Размер: 2.05 GB
Как cкачать? Как скачать Дагон через торрент | UTorrent

% Раздел Тема Автор DL S | L
Фильмы [HD 720p, 1080p] (Хороший звук DUB, MVO) [ 13.86 GB ] Дагон / Dagon [2001 BDRip 1080p by msltel] 3 x MVO DVO 2 x AVO msltel Скачать
1 | 0
Фильмы [HD 720p, 1080p] (Хороший звук DUB, MVO) [ 5.63 GB ] Дагон / Dagon [2001 BDRip 720p by msltel] 3 x MVO DVO 2 x AVO msltel Скачать
1 | 0
Фильмы 2001-2005 [ 1.37 GB ] Дагон / Dagon [2001 DVDRip MVO лицензия] ФёдорOFF Скачать
1 | 0
Фильмы [HD 720p, 1080p] (Хороший звук DUB, MVO) [ 4.77 GB ] Дагон / Dagon [2001 BDRip 720p двухголосый + Оригинал] Sудья Скачать
1 | 0
Фильмы 2006-2008 [ 744 MB ] Дагон / Dagon [2001 DVDRip] NarutoSasuke Скачать
1 | 0

28-11-2019 20:33  

Отключить всю рекламу на сайте


    Дорогой пользователь! Огромная просьба, поблагодарите релизера, оцените раздачу и оставьте свои комментарий, если Вы скачали Дагон через торрент бесплатно! Внесите свою лепту в развитие PiratBit!
    Комментировать посты могут только пользователи прошедшие не сложную регистрацию
    Показать сообщения:    

    Дагон через торрент
    Скачать бесплатно Дагон
    Дагон скачать торрент
    Дагон смотреть онлайн
    Cкачать фильм Дагон бесплатно
    Дагон скачать торрент в хорошем качестве
    Дагон смотреть онлайн бесплатно в хорошем качестве


    Вы не можете начинать темы
    Вы не можете отвечать на сообщения
    Вы не можете редактировать свои сообщения
    Вы не можете удалять свои сообщения
    Вы не можете голосовать в опросах
    Вы не можете прикреплять файлы к сообщениям
    Вы можете скачивать файлы