Всегда рабочее зеркало без VPN и Proxy просто перед .vidak.icu напиши любое слово или цифру, Пример http://ii45.vidak.icu

MVO

MVO

1 сезон

1

1 сезон

iTunes

1 сезон

13

1 сезон

Deluxe

pack

Рекомендуем

Repack

30

ВАЖНО

RePack

MK11

RePack

jed

RePack

fifa19

RePack

RDR2

RePack

NEED FOR SPEED™ PAYBACK

Кинопоиск HD

6 сезон

 Острые козырьки 6 сезон

Все сериалы

все сериалы на PB.wtf

RePack

FAR CRY 5
  
Magnet ссылка

Челюсти / Jaws (Стивен Спилберг) [1975, Ужасы, триллер, приключения, UHD BDRemux 2160p, (Dolby Vision TV)] MVO [Лицензия] pb.wtf

Челюсти через торрент pb.wtf

Размер: 66.51 GB | Добавлен: 2 года 2 мес. назад | Торрент скачан:10 раз
Смотреть онлайн Челюсти | Скачать    Ребята, помогите собрать деньги на оплату серверов!!!

31-05-2020 16:08 Челюсти Скачать торрент  

Челюсти | Jaws
Год выпуска: 1975
Страна: США
Студия: Universal Pictures, Zanuck/Brown Productions
Жанр: Ужасы, триллер, приключения
Продолжительность: 02:04:02
Перевод: Профессиональный (многоголосый) | Лицензия
Субтитры: отсутствуют

Режиссер: Стивен Спилберг

rating

В ролях: Рой Шайдер, Роберт Шоу, Ричард Дрейфусс, Лоррэйн Гари, Мюррэй Хэмилтон, Карл Готтлиб, Джефри Крамер, Сьюзэн Бэклайни, Джонатан Филли, Тед Гроссман

Описание: Экранизация одноимённого произведения Питера Бенчли. Действие картины протекает в течение пяти дней — на острове Э́мити, где расположен небольшой курортный городок. В этом тихом и солнечном месте произошли ужасные трагические события, начало которым было положено ранним утром, когда шеф местной полиции Мартин Броуди и его помощник находят на берегу остатки тела девушки. Она стала первой жертвой огромной большой белой акулы, которая появилась у берегов Эмити… С каждым днем число жертв кровожадной акулы продолжает увеличиваться. Сможет ли отважный охотник на акул, ветеран Второй мировой войны, рыбак Квинт на своём судне выловить и убить акулу-людоеда? В опасную морскую экспедицию вместе с ним отправляются Мартин Броуди и прибывший на остров эксперт из национального института океанографии Мэтт Хупер.

Качество: UHD BDRemux 2160p | Dolby Vision TV
Формат: MP4

Видео: 3840x2160 at 23.976 fps, MPEG-H HEVC HDR, Dolby Vision Video, 70800 kbps avg
Аудио: 48 kHz, AC3, 5.1, 448 Kbps | Лицензия | RUS |
Данный вид релизов (контейнер MP4) предназначен для встроенного в ТВ (соответственно, с поддержкой DV) плеер.
Т.Е. Можно использовать как USB flash/HDD, так и DLNA / Plex - подобные сервисы/программы. дополнительный-внешний плеер не обязателен.

Внимание!
На моделях LG 2016 возможны сюрпризы "через раз", 2017-2018 должно идти без сюрпризов )
скриншот  скриншот  скриншот  скриншот  скриншот  

MI
General
Complete name : E:Video111Jaws.1975.BDREMUX.2160p.HDR.DV_TV.seleZen.mp4
Format : MPEG-4
Format profile : Base Media / Version 2
Codec ID : mp42 (mp42/dby1/isom)
File size : 66.5 GiB
Duration : 2 h 3 min
Overall bit rate : 76.8 Mb/s
Encoded date : UTC 2020-05-31 14:42:27
Tagged date : UTC 2020-05-31 14:42:27

Video #1
ID : 1
Format : HEVC
Format/Info : High Efficiency Video Coding
Format profile : Main [email protected]@High
HDR format : SMPTE ST 2094 App 4, Version 1, HDR10+ Profile B compatible
Codec ID : hev1
Codec ID/Info : High Efficiency Video Coding
Duration : 2 h 3 min
Bit rate : 70.8 Mb/s
Width : 3 840 pixels
Height : 2 160 pixels
Display aspect ratio : 16:9
Frame rate mode : Constant
Frame rate : 23.976 (24000/1001) FPS
Color space : YUV
Chroma subsampling : 4:2:0 (Type 2)
Bit depth : 10 bits
Bits/(Pixel*Frame) : 0.356
Stream size : 61.3 GiB (92%)
Default : No
Encoded date : UTC 2020-05-31 14:42:27
Tagged date : UTC 2020-05-31 14:42:27
Color range : Limited
Color primaries : BT.2020
Transfer characteristics : PQ
Matrix coefficients : BT.2020 non-constant
Mastering display color pri : Display P3
Mastering display luminance : min: 0.0050 cd/m2, max: 4000 cd/m2
Maximum Content Light Level : 1000 cd/m2
Maximum Frame-Average Light : 259 cd/m2
Codec configuration box : hvcC

Video #2
ID : 2
Format : HEVC
Format/Info : High Efficiency Video Coding
Format profile : Main [email protected]@High
HDR format : Dolby Vision, Version 1.0, dvhe.07.06, EL+RPU, Blu-ray compatible / SMPTE ST 2086, HDR10 compatible
Codec ID : dvhe
Codec ID/Info : High Efficiency Video Coding with Dolby Vision
Duration : 2 h 3 min
Bit rate : 5 572 kb/s
Width : 1 920 pixels
Height : 1 080 pixels
Display aspect ratio : 16:9
Frame rate mode : Constant
Frame rate : 23.976 (24000/1001) FPS
Color space : YUV
Chroma subsampling : 4:2:0 (Type 2)
Bit depth : 10 bits
Bits/(Pixel*Frame) : 0.112
Stream size : 4.82 GiB (7%)
Default : No
Encoded date : UTC 2020-05-31 14:42:27
Tagged date : UTC 2020-05-31 14:42:27
Color range : Limited
Color primaries : BT.2020
Transfer characteristics : PQ
Matrix coefficients : BT.2020 non-constant
Mastering display color pri : Display P3
Mastering display luminance : min: 0.0050 cd/m2, max: 4000 cd/m2
Codec configuration box : hvcC+dvcC

Audio
ID : 3
Format : AC-3
Format/Info : Audio Coding 3
Commercial name : Dolby Digital
Codec ID : ac-3
Duration : 2 h 3 min
Bit rate mode : Constant
Bit rate : 448 kb/s
Channel(s) : 6 channels
Channel layout : L R C LFE Ls Rs
Sampling rate : 48.0 kHz
Frame rate : 31.250 FPS (1536 SPF)
Compression mode : Lossy
Stream size : 397 MiB (1%)
Language : Russian
Service kind : Complete Main
Default : No
Encoded date : UTC 2020-05-31 14:42:27
Tagged date : UTC 2020-05-31 14:42:27

pb.wtf



Скачать Челюсти через торрент https://i112.fastpic.ru/big/2020/0531/1c/84e5e82bba686fcb175ae763d6a3f31c.jpg Скачать, смотреть онлайн Челюсти бесплантно в хорошем качестве Описание: Экранизация одноимённого произведения Питера Бенчли. Действие картины протекает в течение пяти дней — на острове Э́мити, где ... 9 10 5
Торрент: Зарегистрирован [2020-05-31 16:08] · скачан: 10 раз
Статус: √ проверено
Размер: 66.51 GB
Как cкачать? Как скачать Челюсти через торрент | UTorrent

% Раздел Тема Автор DL S | L
T Фильмы (BDRip, HDrip-AVC) (48-60 fps) [ 2.84 GB ] Челюсти / Jaws [1975 BDRip-AVC 60 FPS MVO] TimeCop Скачать
1 | 0
Фильмы (BDRip, HDrip-AVC) (48-60 fps) [ 2.77 GB ] Челюсти 2 / Jaws 2 [1978 BDRip-AVC 60 FPS MVO] TimeCop Скачать
1 | 0
Ultra HD (UHD: 2K, 4K, 8K) — видео сверхвысокой чёткости [ 91.76 GB ] Челюсти / Jaws [1975 UHD Blu-Ray EUR 2160p ] MVO [] bober100 Скачать
1 | 0
Ultra HD (UHD: 2K, 4K, 8K) — видео сверхвысокой чёткости [ 74.26 GB ] Челюсти / Jaws [1975 UHD BDRemux 2160p ] MVO [] bober100 Скачать
1 | 0
Ultra HD (UHD: 2K, 4K, 8K) — видео сверхвысокой чёткости [ 78.91 GB ] Челюсти / Jaws [1975 UHD BDRemux 2160p] 4xMVO+5xAVO+DVO bober100 Скачать
1 | 0
Фильмы [HD 720p, 1080p] (Хороший звук DUB, MVO) [ 3.85 GB ] Челюсти 4: Месть / Jaws 4: The Revenge [1987 BDRip 720p 3xMVO + 3xAVO] Бумер Скачать
1 | 0
Фильмы [HD 720p, 1080p] (Хороший звук DUB, MVO) [ 4.71 GB ] Челюсти 2 / Jaws 2 [1978 BDRip 720p 4xMVO + 3xAVO] Бумер Скачать
1 | 0

28-11-2019 20:33  

Отключить вcю реклaмy на сайте

    Дорогой пользователь! Огромная просьба, поблагодарите релизера, оцените раздачу и оставьте свои комментарий, если Вы скачали Челюсти через торрент бесплатно!
    Комментировать посты могут только пользователи прошедшие не сложную регистрацию
    Показать сообщения:    

    Челюсти через торрент
    Скачать бесплатно Челюсти
    Челюсти скачать торрент
    Челюсти смотреть онлайн
    Cкачать фильм Челюсти бесплатно
    Челюсти скачать торрент в хорошем качестве
    Челюсти смотреть онлайн бесплатно в хорошем качестве


    Вы не можете начинать темы
    Вы не можете отвечать на сообщения
    Вы не можете редактировать свои сообщения
    Вы не можете удалять свои сообщения
    Вы не можете голосовать в опросах
    Вы не можете прикреплять файлы к сообщениям
    Вы можете скачивать файлы