Ссылка на приватное зеркало всего за 1$. Внимание количество ограничено!!!

iTunes

iTunes

iTunes

1

iTunes

iTunes

iTunes

iTunes

iTunes

30
pack

$ от Little Big

ВАЖНО

!!Акция!!

Alien_RageХит недели

RePack

Resident Evil 21

ИГРА 18+

pack

RePack

jed

!!Акция!!

Alien_Rage

RePack

fifa19

RePack

Assassins Creed: Odyssey

RePack

NEED FOR SPEED™ PAYBACK

4 сезон

9 сезон

Бесстыжие 9 сезон

Все сериалы

все сериалы на PB.wtf

RePack

FAR CRY 5
  

Хрустальная ловушка / Серии: 1-4 из 4 (Игорь Нурисламов) [2020, Детектив, криминал, триллер, WEB-DLRip] pb.wtf

Хрустальная ловушка через торрент pb.wtf

Размер: 2.24 GB | Добавлен: 1 мес. 11 д. назад | Торрент скачан:31 раз
Скачать  

31-05-2020 18:55 Хрустальная ловушка Скачать торрент  

Хрустальная ловушка
Год выпуска: 2020
Страна: Россия
Жанр: Детектив, криминал, триллер
Продолжительность: ~ 00:44:00
Субтитры: отсутствуют

Режиссер: Игорь Нурисламов

В ролях: Марина Коняшкина, Сергей Перегудов, Татьяна Чердынцева, Роман Маякин, Елена Мартыненко, Игорь Николаев, Виталий Сазонов, Олег Попов (II), Владимир Крылов, Алексей Штукин, Валерий Чеботаев, Полина Войченко, Игорь Устинович, Татьяна Калашникова, Артём Мустафин, Светлана Киреева, Кирилл Балобан, Евгений Рыжик, Артём Лещик, Василий Башмаков, Вячеслав Лебедев (II), Тимур Разомазов, Елизавета Крейдунец, Кристина Юрчак

Описание: По мотивам одноимённого романа Виктории Платовой. На горнолыжный курорт «Роза ветров» переводчица Ольга едет из-за мужа. Сама она не катается, а вот Марк обожает лыжи. Как и её лучшая подруга и, по совместительству, молодая мачеха Инка. На курорте все говорят об исчезнувшем писателе - испанце Карлосе. То ли накрыло лавиной, то ли загадочным образом исчез. А перед исчезновением он искал легендарную пещеру Собирателя душ - логово местного горного духа. Брат Марка, горноспасатель Иона, просит Ольгу перевести дневник Карлоса. Вдруг там есть подсказки, что могло случиться. Пытаясь распутать чужие тайны Ольга не замечает, как сама становится их пленницей. Поиски испанца приводят Ольгу в пещеру, наполненную ужасающими ледяными скульптурами. Под коркой льда Ольга видит лица людей. Похоже, мистический Собиратель, охотящийся за горнолыжниками, действительно существует. И теперь он открыл охоту на Ольгу... Проблема только в том, что Ольге никто не верит.

Качество: WEB-DLRip
Формат: AVI

Видео: 720x400 (1.80:1), 25 fps, XviD build 73 ~1600 kbps avg, 0.22 bit/pixel
Аудио: 48.0 kHz, AC3 Dolby Digital, 2/0 (L,R) ch, ~ 192 kbps
скриншот  скриншот  скриншот  скриншот  

General
Complete name : H:\fiiles x\Хрустальная ловушка.2020.WEB-DLRip.Files-x\01. Хрустальная ловушка.2020.WEB-DLRip.Files-x.avi
Format : AVI
Format/Info : Audio Video Interleave
File size : 570 MiB
Duration : 44mn 15s
Overall bit rate : 1 802 Kbps
Writing application : VirtualDubMod 1.5.10.3 | www.virtualdub-fr.org || (build 2550/release)
Writing library : VirtualDubMod build 2550/release

Video
ID : 0
Format : MPEG-4 Visual
Format profile : Advanced Simple@L5
Format settings, BVOP : 1
Format settings, QPel : No
Format settings, GMC : No warppoints
Format settings, Matrix : Custom
Codec ID : XVID
Codec ID/Hint : XviD
Duration : 44mn 15s
Bit rate : 1 600 Kbps
Width : 720 pixels
Height : 400 pixels
Display aspect ratio : 16:9
Frame rate : 25.000 fps
Color space : YUV
Chroma subsampling : 4:2:0
Bit depth : 8 bits
Scan type : Progressive
Compression mode : Lossy
Bits/(Pixel*Frame) : 0.222
Stream size : 506 MiB (89%)
Writing library : XviD 73

Audio
ID : 1
Format : AC-3
Format/Info : Audio Coding 3
Mode extension : CM (complete main)
Codec ID : 2000
Duration : 44mn 15s
Bit rate mode : Constant
Bit rate : 192 Kbps
Channel(s) : 2 channels
Channel positions : Front: L R
Sampling rate : 48.0 KHz
Bit depth : 16 bits
Compression mode : Lossy
Stream size : 60.8 MiB (11%)
Alignment : Split accross interleaves
Interleave, duration : 40 ms (1.00 video frame)
Interleave, preload duration : 500 ms

pb.wtf



Скачать Хрустальная ловушка через торрент https://c.radikal.ru/c24/2005/f3/f82252fa7bd3.jpg Скачать фильм Хрустальная ловушка через торрент бесплантно в хорошем качестве Описание: По мотивам одноимённого романа Виктории Платовой. На горнолыжный курорт «Роза ветров» переводчица Ольга едет из-за мужа. Сама она ... 10 10 4
Торрент: Зарегистрирован [2020-05-31 18:55] · скачан: 31 раз
Статус: √ проверено
Размер: 2.24 GB
Как cкачать? Как скачать Хрустальная ловушка через торрент | qTorrent

% Раздел Тема Автор DL S | L
Наши сериалы [ 2.31 GB ] Хрустальная ловушка / Серии: 1-4 из 4 [2020 SATRip] bober100 Скачать
2 | 0
Наши сериалы [ 2.23 GB ] Хрустальная ловушка / Серии: 1-4 из 4 [2020 WEB-DLRip-AVC] bober100 Скачать
1 | 0
Наши сериалы [ 2.06 GB ] Хрустальная ловушка / Серии: 1-4 из 4 [2020 SATRip-AVC] aleksan55 Скачать
2 | 0

28-11-2019 20:33  

Отключить всю рекламу на сайте

    Дорогой пользователь! Огромная просьба, поблагодарите релизера, оцените раздачу и оставьте свои комментарий, если Вы скачали Хрустальная ловушка через торрент бесплатно! Внесите свою лепту в развитие PiratBit!
    Комментировать посты могут только пользователи прошедшие не сложную регистрацию
    Показать сообщения:    

    Хрустальная ловушка через торрент
    Скачать бесплатно Хрустальная ловушка
    Хрустальная ловушка скачать торрент
    Хрустальная ловушка смотреть онлайн
    Cкачать фильм Хрустальная ловушка бесплатно
    Хрустальная ловушка скачать торрент в хорошем качестве
    Хрустальная ловушка смотреть онлайн бесплатно в хорошем качестве


    Вы не можете начинать темы
    Вы не можете отвечать на сообщения
    Вы не можете редактировать свои сообщения
    Вы не можете удалять свои сообщения
    Вы не можете голосовать в опросах
    Вы не можете прикреплять файлы к сообщениям
    Вы можете скачивать файлы