Ссылка на приватное зеркало нашего сайта всего за 1$. Внимание количество ограничено!!!

2 сезон

iTunes

1 сезон

1

iTunes

iTunes

iTunes

1 сезон

RePack

30

ИГРА 18+

pack

ВАЖНО

!!Акция!!

Alien_RageХит недели

RePack

MK11
pack

Забери бонус

RePack

jed

!!Акция!!

Alien_Rage

RePack

fifa19

RePack

Assassins Creed: Odyssey

RePack

NEED FOR SPEED™ PAYBACK

4 сезон

9 сезон

Бесстыжие 9 сезон

Все сериалы

все сериалы на PB.wtf

RePack

FAR CRY 5
  

Самый лучший муж / Сезон: 1 / Серии: 1-8 из 8 (Сергей Толкушкин) [2019, Остросюжетная мелодрама, WEB-DL 720p] pb.wtf

Самый лучший муж через торрент pb.wtf

Раздают: 2 [ 0 KB/s ]
Размер: 6.76 GB | Добавлен: 4 мес. 29 д. назад | Торрент скачан:43 раза
Скачать  

31-05-2020 19:25 Самый лучший муж Скачать торрент  

Самый лучший муж
Год выпуска: 2019
Страна: Украина
Жанр: Остросюжетная мелодрама
Продолжительность: ~ 00:45:00
Перевод: Не требуется
Субтитры: отсутствуют

Режиссер: Сергей Толкушкин



В ролях: Елена Шилова,Алексей Яровенко, Ксения Мишина, Дитрий Тубольцев, Ирина Мак,Николай Боклан, Мария Хомутова, Павел Тупиков

Описание: Нина влюблена в своего начальника Глеба, но тот собирается жениться. Глеб делает предложение невесте, но выясняется, что она его обманула и давно замужем. Неужели у Нины появился шанс на счастье? Глеб убеждается, что чуткая, добрая, нежная Нина нужна ему, постепенно их отношения из дружеских перерастают в нечто большее. Кажется, счастье близко – назначен день свадьбы, но на пороге, как призрак из прошлого, появляется бывшая невеста и вручает Глебу их новорожденного ребенка...

Качество: WEB-DL 720p
Формат: MKV

Видео: MPEG-4 AVC, ~ 2400 Кбит/с, 1280x720, 25 кадр/с
Аудио: 48.0 kHz, AC3 Dolby Digital, 2/0 (L,R) ch, ~ 192 kbps
скриншот  скриншот  скриншот  скриншот  скриншот  

Общее
Уникальный идентификатор : 334719162550068773171063535330028082491 (0xFBD090D9066A5421568E31B185EED53B)
Полное имя : C:\Самый лучший муж.(2018).WEB-DL (720p).by.Nicodem.Files-x\01.Самый лучший муж.(2018).WEB-DL (720p).by.Nicodem.Files-x.mkv
Формат : Matroska
Версия формата : Version 4
Размер файла : 890 Мбайт
Продолжительность : 46 м. 9 с.
Режим общего битрейта : Переменный
Общий поток : 2694 Кбит/сек
Программа кодирования : Lavf56.36.100
Библиотека кодирования : Lavf56.36.100

Видео
Идентификатор : 1
Формат : AVC
Формат/Информация : Advanced Video Codec
Профиль формата : Main@L3.1
Настройки формата : CABAC / 3 Ref Frames
Параметр CABAC формата : Да
Параметр RefFrames формата : 3 кадра
Идентификатор кодека : V_MPEG4/ISO/AVC
Продолжительность : 46 м. 9 с.
Вид битрейта : Переменный
Битрейт : 2449 Кбит/сек
Максимальный битрейт : 4000 Кбит/сек
Ширина : 1280 пикселей
Высота : 720 пикселей
Соотношение сторон : 16:9
Режим частоты кадров : Постоянный
Частота кадров : 25,000 кадров/сек
Стандарт вещания : PAL
Цветовое пространство : YUV
Субдискретизация насыщенности : 4:2:0
Битовая глубина : 8 бит
Тип развёртки : Прогрессивная
Бит/(Пиксели*Кадры) : 0.106
Размер потока : 808 Мбайт (91%)
Default : Да
Forced : Нет
Цветовой диапазон : Limited

Аудио
Идентификатор : 2
Формат : AC-3
Формат/Информация : Audio Coding 3
Коммерческое название : Dolby Digital
Идентификатор кодека : A_AC3
Продолжительность : 46 м. 9 с.
Вид битрейта : Постоянный
Битрейт : 192 Кбит/сек
Каналы : 2 канала
ChannelLayout : L R
Частота : 48,0 КГц
Частота кадров : 31,250 кадров/сек (1536 SPF)
Битовая глубина : 16 бит
Метод сжатия : С потерями
Задержка видео : -120 мс.
Размер потока : 63,4 Мбайт (7%)
Язык : unknown
ServiceKind/String : Complete Main
Default : Да
Forced : Нет

pb.wtf



Скачать Самый лучший муж через торрент https://i106.fastpic.ru/big/2019/0127/f5/1b89cbd2914d562a1ca050544b88d4f5.jpg Скачать фильм Самый лучший муж через торрент бесплантно в хорошем качестве Описание: Нина влюблена в своего начальника Глеба, но тот собирается жениться. Глеб делает предложение невесте, но выясняется, что она его ... 10 10 2
Торрент: Зарегистрирован [2020-05-31 19:25] · скачан: 43 раз
Статус: √ проверено
Размер: 6.76 GB
Как cкачать? Как скачать Самый лучший муж через торрент | qTorrent

% Раздел Тема Автор DL S | L
Наши сериалы [ 4.49 GB ] Самый лучший муж / Сезон: 1 / Серии: 1-8 из 8 [2019 Остросюжетная WEB-DLRip-AVC] bober100 Скачать
1 | 0
Наши сериалы [ 4.67 GB ] Самый лучший муж / Сезон: 1 / Серии: 1-8 из 8 [2019 Остросюжетная WEB-DLRip] bober100 Скачать
1 | 0

28-11-2019 20:33  

Отключить всю рекламу на сайте

    Дорогой пользователь! Огромная просьба, поблагодарите релизера, оцените раздачу и оставьте свои комментарий, если Вы скачали Самый лучший муж через торрент бесплатно! Внесите свою лепту в развитие PiratBit!
    Комментировать посты могут только пользователи прошедшие не сложную регистрацию
    Показать сообщения:    

    Самый лучший муж через торрент
    Скачать бесплатно Самый лучший муж
    Самый лучший муж скачать торрент
    Самый лучший муж смотреть онлайн
    Cкачать фильм Самый лучший муж бесплатно
    Самый лучший муж скачать торрент в хорошем качестве
    Самый лучший муж смотреть онлайн бесплатно в хорошем качестве


    Вы не можете начинать темы
    Вы не можете отвечать на сообщения
    Вы не можете редактировать свои сообщения
    Вы не можете удалять свои сообщения
    Вы не можете голосовать в опросах
    Вы не можете прикреплять файлы к сообщениям
    Вы можете скачивать файлы