2 сезон

iTunes

MVO

1

2 сезон

iTunes

iTunes

1 сезон

RePack

30

Новинка

ВАЖНО

ИГРА 18+

pack

RePack

MK11
pack

Легкие деньги

RePack

jed

RePack

fifa19

RePack

RDR2

RePack

NEED FOR SPEED™ PAYBACK

4 сезон

9 сезон

Бесстыжие 9 сезон

Все сериалы

все сериалы на PB.wtf

RePack

FAR CRY 5

Anonymous, добрый вечер, мы не успеваем собрать деньги на оплату серверов за декабрь и январь, помогите нам пожалуйста в это трудное время. В качестве благодарности мы отключим Вам всю рекламу на сайте (укажите свой ник в строку Ваше имя)!

×
  
Magnet ссылка

Иные / Freaks (Зак Липовски, Адам Б. Стейн) [2018, Фантастика, триллер, драма, BDRip-AVC] DUB [Лицензия] - ExKinoRay pb.wtf

Иные через торрент pb.wtf

Раздают: 1 [ 318 KB/s ]
Размер: 2.54 GB | Добавлен: 7 мес. назад | Торрент скачан:305 раз
Скачать  

01-06-2020 00:29 Иные Скачать торрент  

Иные / Freaks
Год выпуска: 2018
Страна: Канада, США / Amazing, Bloomgarden Films, My Way Entertainment
Жанр: Фантастика, триллер, драма
Продолжительность: 01:44:56
Перевод: Дублированный | Лицензия R5
Субтитры: Русские, английские

Режиссер: Зак Липовски, Адам Б. Стейн

rating

В ролях: Эмиль Хирш, Брюс Дерн, Грэйс Пак, Аманда Крю, Лекси Колкер, Ава Телек, Мишель Харрисон, Мэтти Финочио, Алекс Паунович, АрДжей Фезерстонхо

Описание: В уединенном домике одного из районов Лос-Анджелеса живут маленькая девочка и ее заботливый отец. Вполне нормальная семья, если не считать, что девочка одним взглядом может поднять в воздух тяжеленный шкаф, а у отца всегда наготове снятый с предохранителя пистолет. Каждый день, уходя из дома, папа запирает дочь, и категорически запрещает открывать дверь. Ей нельзя ни с кем разговаривать и не позволено даже подходить к окну. Единственное развлечение девочки: тайком наблюдать из-за занавесок за фургончиком мороженщика, который целыми днями торчит возле их дома. Играет музыка и таинственной голос призывает её отпереть дверь и полакомиться сладеньким. Малышке так хочется мороженого, но ведь папа сказал, что это смертельно опасно: никто не должен её видеть! И вот однажды девочка нарушает запрет, и начинаются самые невероятные события, которые только можно представить.

Качество: BDRip-AVC
Формат: MKV
Видео кодек: H.264
Аудио кодек: AC3
Видео: MPEG-4 AVC, 2573 Кбит/c, 1024x432
Аудио#1: Русский (AC3, 6 ch, 448 Кбит/с) DUB (R5)
Аудио#2: Английский (AC3, 6 ch, 448 Кбит/с) Original

Релиз от:
Общее
Уникальный идентификатор : 219577678133624433753412480233085935550 (0xA5311F5F0567027A8865402F8BB91FBE)
Полное имя : D:\Раздача\Inye.2018.BDRip-AVC.ExKinoRay.mkv
Формат : Matroska
Версия формата : Version 4 / Version 2
Размер файла : 2,54 Гбайт
Продолжительность : 1 ч. 44 м.
Общий поток : 3471 Кбит/сек
Название фильма : Freaks 2018 BDRip-AVC.grab777 & ExKinoRay
Дата кодирования : UTC 2020-05-31 18:51:43
Программа кодирования : mkvmerge v7.3.0 ('Nouages') 64bit built on Oct 22 2014 18:53:34
Библиотека кодирования : libebml v1.3.0 + libmatroska v1.4.1

Видео
Идентификатор : 1
Формат : AVC
Формат/Информация : Advanced Video Codec
Профиль формата : High@L4.1
Настройки формата : CABAC / 12 Ref Frames
Параметр CABAC формата : Да
Параметр RefFrames формата : 12 кадров
Идентификатор кодека : V_MPEG4/ISO/AVC
Продолжительность : 1 ч. 44 м.
Битрейт : 2573 Кбит/сек
Ширина : 1024 пикселя
Высота : 432 пикселя
Соотношение сторон : 2,35:1
Соотношение сторон в оригинале : 2,35:1
Режим частоты кадров : Переменный
Частота кадров : 23,976 кадра/сек
Цветовое пространство : YUV
Субдискретизация насыщенности : 4:2:0
Битовая глубина : 8 бит
Тип развёртки : Прогрессивная
Бит/(Пиксели*Кадры) : 0.243
Размер потока : 1,89 Гбайт (74%)
Заголовок : Rip by grab777
Библиотека кодирования : x264 core 148 r2665M a01e339
Настройки программы : cabac=1 / ref=12 / deblock=1:-2:-2 / analyse=0x3:0x113 / me=umh / subme=10 / psy=1 / psy_rd=1.00:0.15 / mixed_ref=1 / me_range=32 / chroma_me=1 / trellis=2 / 8x8dct=1 / cqm=0 / deadzone=21,11 / fast_pskip=1 / chroma_qp_offset=-3 / threads=5 / lookahead_threads=1 / sliced_threads=0 / nr=0 / decimate=1 / interlaced=0 / bluray_compat=0 / constrained_intra=0 / bframes=10 / b_pyramid=2 / b_adapt=2 / b_bias=0 / direct=3 / weightb=1 / open_gop=0 / weightp=2 / keyint=230 / keyint_min=23 / scenecut=40 / intra_refresh=0 / rc_lookahead=40 / rc=crf / mbtree=0 / crf=16.6 / qcomp=0.60 / qpmin=0 / qpmax=69 / qpstep=4 / vbv_maxrate=30000 / vbv_bufsize=40000 / crf_max=0.0 / nal_hrd=none / filler=0 / ip_ratio=1.40 / pb_ratio=1.30 / aq=1:1.00
Язык : English
Default : Да
Forced : Нет

Аудио #1
Идентификатор : 2
Формат : AC-3
Формат/Информация : Audio Coding 3
Параметр Endianness формата : Big
Идентификатор кодека : A_AC3
Продолжительность : 1 ч. 44 м.
Вид битрейта : Постоянный
Битрейт : 448 Кбит/сек
Каналы : 6 каналов
Расположение каналов : Front: L C R, Side: L R, LFE
Частота : 48,0 КГц
Частота кадров : 31,250 кадров/сек (1536 SPF)
Битовая глубина : 16 бит
Метод сжатия : С потерями
Размер потока : 336 Мбайт (13%)
Заголовок : Dub (Licenziya)
Язык : Russian
ServiceKind/String : Complete Main
Default : Да
Forced : Да

Аудио #2
Идентификатор : 3
Формат : AC-3
Формат/Информация : Audio Coding 3
Параметр Endianness формата : Big
Идентификатор кодека : A_AC3
Продолжительность : 1 ч. 44 м.
Вид битрейта : Постоянный
Битрейт : 448 Кбит/сек
Каналы : 6 каналов
Расположение каналов : Front: L C R, Side: L R, LFE
Частота : 48,0 КГц
Частота кадров : 31,250 кадров/сек (1536 SPF)
Битовая глубина : 16 бит
Метод сжатия : С потерями
Размер потока : 336 Мбайт (13%)
Заголовок : Original
Язык : English
ServiceKind/String : Complete Main
Default : Нет
Forced : Нет

Текст #1
Идентификатор : 4
Формат : UTF-8
Идентификатор кодека : S_TEXT/UTF8
Идентификатор кодека/Информация : UTF-8 Plain Text
Продолжительность : 1 ч. 39 м.
Битрейт : 87 бит/сек
ElementCount : 1470
Размер потока : 63,5 Кбайт (0%)
Язык : Russian
Default : Нет
Forced : Нет

Текст #2
Идентификатор : 5
Формат : UTF-8
Идентификатор кодека : S_TEXT/UTF8
Идентификатор кодека/Информация : UTF-8 Plain Text
Продолжительность : 1 ч. 39 м.
Битрейт : 47 бит/сек
ElementCount : 1470
Размер потока : 34,5 Кбайт (0%)
Заголовок : Full
Язык : English
Default : Нет
Forced : Нет

Меню
00:00:00.000 : :Chapter 01
00:08:33.763 : :Chapter 02
00:19:04.643 : :Chapter 03
00:26:30.756 : :Chapter 04
00:34:19.599 : :Chapter 05
00:40:53.534 : :Chapter 06
00:47:31.474 : :Chapter 07
00:57:44.586 : :Chapter 08
01:06:11.301 : :Chapter 09
01:14:00.186 : :Chapter 10
01:24:38.824 : :Chapter 11
01:33:46.621 : :Chapter 12
01:41:14.151 : :Chapter 13

pb.wtf



Скачать Иные через торрент http://pic1.kartinco.top/images/12/38fdb.jpg Скачать фильм Иные через торрент бесплантно в хорошем качестве Описание: В уединенном домике одного из районов Лос-Анджелеса живут маленькая девочка и ее заботливый отец. Вполне нормальная семья, если ... 9.7 10 9
Торрент: Зарегистрирован [2020-06-01 00:29] · скачан: 305 раз
Статус: √ проверено
Размер: 2.54 GB
Как cкачать? Как скачать Иные через торрент | UTorrent

% Раздел Тема Автор DL S | L
Фильмы (Blu-ray, BD-Remux, HDDVD) [ 15.27 GB ] Иные / Freaks [2018 BDRemux 1080p] DUB [] - ExKinoRay Mr. Grab Скачать
1 | 0

28-11-2019 20:33  

Отключить всю рекламу на сайте

    Дорогой пользователь! Огромная просьба, поблагодарите релизера, оцените раздачу и оставьте свои комментарий, если Вы скачали Иные через торрент бесплатно! Внесите свою лепту в развитие PiratBit!
    Комментировать посты могут только пользователи прошедшие не сложную регистрацию
    Показать сообщения:    

    Иные через торрент
    Скачать бесплатно Иные
    Иные скачать торрент
    Иные смотреть онлайн
    Cкачать фильм Иные бесплатно
    Иные скачать торрент в хорошем качестве
    Иные смотреть онлайн бесплатно в хорошем качестве


    Вы не можете начинать темы
    Вы не можете отвечать на сообщения
    Вы не можете редактировать свои сообщения
    Вы не можете удалять свои сообщения
    Вы не можете голосовать в опросах
    Вы не можете прикреплять файлы к сообщениям
    Вы можете скачивать файлы