2 сезон

iTunes

MVO

1

2 сезон

iTunes

iTunes

1 сезон

RePack

30

Новинка

ВАЖНО

ИГРА 18+

pack

RePack

MK11
pack

Легкие деньги

RePack

jed

RePack

fifa19

RePack

RDR2

RePack

NEED FOR SPEED™ PAYBACK

4 сезон

9 сезон

Бесстыжие 9 сезон

Все сериалы

все сериалы на PB.wtf

RePack

FAR CRY 5

Anonymous, доброй ночи, мы не успеваем собрать деньги на оплату серверов за декабрь и январь, помогите нам пожалуйста в это трудное время. В качестве благодарности мы отключим Вам всю рекламу на сайте (укажите свой ник в строку Ваше имя)!

×
  
Magnet ссылка

Стиратель / Eraser (Чак Рассел) [1996 г., боевик, триллер, драма, детектив, BDRip 720p / 60 FPS, Дубляж] от R.G. HD-Films pb.wtf

Стиратель через торрент pb.wtf

Размер: 3.56 GB | Добавлен: 7 мес. назад | Торрент скачан:131 раз
Скачать  

01-06-2020 10:13 Стиратель Скачать торрент  

Стиратель / Eraser
Год выпуска: : 1996
Страна: : США
Жанр: : боевик, триллер, драма, детектив
Продолжительность: 01:54:31
Перевод: Дубляж
Субтитры: Russian, English

Режиссер: Чак Рассел

Бюджет: $100 000 000
Премьера в мире: 11 июня 1996

rating

В ролях: Арнольд Шварценеггер, Джеймс Каан, Ванесса Уильямс, Джеймс Коберн, Роберт Пасторелли, Джеймс Кромуэлл, Дэнни Нуччи, Энди Романо, Ник Чинланд, Майкл Пападжон

Сюжет фильма: Джон Крюгер «стирает» из прошлого и настоящего все следы людей, находящихся под охраной Программы Защиты Свидетелей. Ему надо защищать женщину — ее играет Ванесса Уильямс, — которая готова разоблачить сделку по продаже преступникам нового супероружия. Крюгер должен спасти и ее и себя, и начинается марафон не на жизнь, а на смерть, где ему предстоит прыгать с самолета вслед за парашютом, сражаться с аллигаторами, преодолевать суперсовременные системы безопасности и противостоять киллерам с новейшим оружием.

Качество видео: BDRip 720p / 60 FPS
Формат: MKV
Видео кодек: H.264
Аудио кодек: AC3
Видео : x264, 1280 x 536 ( 2,40:1 ), 4072 kbps, 60,000 fps, ( 0.099 bpp)
Аудио : Русский, AC-3, 48.0 KHz, 6 ch, 384 Kbps
Релиз от:

скриншот   скриншот   скриншот   скриншот   скриншот   скриншот  Автор рипа: slaventi-69
x264 [info]: frame I:2124 Avg QP:16.47 size: 65256
x264 [info]: frame P:95424 Avg QP:17.56 size: 18071
x264 [info]: frame B:314343 Avg QP:20.55 size: 5188
x264 [info]: consecutive B-frames: 2.1% 1.7% 7.9% 17.8% 56.9% 13.5%


Общее
Уникальный идентификатор : 254209445234962935457841223319367723902 (0xBF3EF551572DFBB18D44766B25942B7E)
Полное имя : F:\Eraser.(1996).BDRip.720p.(60 Fps).mkv
Формат : Matroska
Версия формата : Version 4
Размер файла : 3,56 Гбайт
Продолжительность : 1 ч. 54 м.
Общий поток : 4457 Кбит/сек
Название фильма : Стиратель / Eraser (1996) BDRip 720p (60 Fps)
Дата кодирования : UTC 2020-05-28 15:33:44
Программа кодирования : mkvmerge v12.0.0 ('Trust / Lust') 64bit
Библиотека кодирования : libebml v1.3.4 + libmatroska v1.4.5

Видео
Идентификатор : 1
Формат : AVC
Формат/Информация : Advanced Video Codec
Профиль формата : High@L4.1
Настройки формата : CABAC / 8 Ref Frames
Параметр CABAC формата : Да
Параметр RefFrames формата : 8 кадров
Идентификатор кодека : V_MPEG4/ISO/AVC
Продолжительность : 1 ч. 54 м.
Битрейт : 4072 Кбит/сек
Ширина : 1280 пикселей
Высота : 536 пикселей
Соотношение сторон : 2,40:1
Режим частоты кадров : Постоянный
Частота кадров : 60,000 кадров/сек
Цветовое пространство : YUV
Субдискретизация насыщенности : 4:2:0
Битовая глубина : 8 бит
Тип развёртки : Прогрессивная
Бит/(Пиксели*Кадры) : 0.099
Размер потока : 3,25 Гбайт (91%)
Заголовок : slaventi-69 ( R.G. HD-Films | 60 fps )
Библиотека кодирования : x264 core 130 r2273 b3065e6
Настройки программы : cabac=1 / ref=8 / deblock=1:-1:-1 / analyse=0x3:0x113 / me=umh / subme=9 / psy=1 / psy_rd=1.00:0.00 / mixed_ref=1 / me_range=26 / chroma_me=1 / trellis=2 / 8x8dct=1 / cqm=0 / deadzone=21,11 / fast_pskip=0 / chroma_qp_offset=-2 / threads=6 / lookahead_threads=2 / sliced_threads=0 / nr=0 / decimate=1 / interlaced=0 / bluray_compat=0 / constrained_intra=0 / bframes=5 / b_pyramid=2 / b_adapt=2 / b_bias=0 / direct=3 / weightb=1 / open_gop=0 / weightp=2 / keyint=600 / keyint_min=25 / scenecut=40 / intra_refresh=0 / rc=crf / mbtree=0 / crf=17.3 / qcomp=0.60 / qpmin=0 / qpmax=69 / qpstep=4 / ip_ratio=1.40 / pb_ratio=1.30 / aq=1:1.00
Язык : English
Default : Да
Forced : Нет

Аудио
Идентификатор : 2
Формат : AC-3
Формат/Информация : Audio Coding 3
Коммерческое название : Dolby Digital
Идентификатор кодека : A_AC3
Продолжительность : 1 ч. 54 м.
Вид битрейта : Постоянный
Битрейт : 384 Кбит/сек
Каналы : 6 каналов
Channel layout : L R C LFE Ls Rs
Частота : 48,0 КГц
Частота кадров : 31,250 кадров/сек (1536 SPF)
Битовая глубина : 16 бит
Метод сжатия : С потерями
Размер потока : 314 Мбайт (9%)
Заголовок : Dub
Язык : Russian
ServiceKind/String : Complete Main
Default : Да
Forced : Нет

Текст #1
Идентификатор : 3
Формат : UTF-8
Идентификатор кодека : S_TEXT/UTF8
Идентификатор кодека/Информация : UTF-8 Plain Text
Продолжительность : 1 ч. 48 м.
Битрейт : 63 бит/сек
ElementCount : 1206
Размер потока : 50,8 Кбайт (0%)
Язык : Russian
Default : Нет
Forced : Нет

Текст #2
Идентификатор : 4
Формат : UTF-8
Идентификатор кодека : S_TEXT/UTF8
Идентификатор кодека/Информация : UTF-8 Plain Text
Продолжительность : 1 ч. 51 м.
Битрейт : 49 бит/сек
ElementCount : 1127
Размер потока : 40,5 Кбайт (0%)
Язык : English
Default : Нет
Forced : Нет

Меню
00:00:00.000 : en:00:00:00.000
00:02:42.412 : en:00:02:42.412
00:04:20.260 : en:00:04:20.260
00:08:33.221 : en:00:08:33.221
00:11:30.440 : en:00:11:30.440
00:12:28.831 : en:00:12:28.831
00:17:55.741 : en:00:17:55.741
00:20:39.447 : en:00:20:39.447
00:23:16.687 : en:00:23:16.687
00:24:24.129 : en:00:24:24.129
00:30:19.317 : en:00:30:19.317
00:31:32.140 : en:00:31:32.140
00:33:34.679 : en:00:33:34.679
00:34:53.174 : en:00:34:53.174
00:38:50.828 : en:00:38:50.828
00:43:26.270 : en:00:43:26.270
00:46:46.429 : en:00:46:46.429
00:48:19.146 : en:00:48:19.146
00:51:01.558 : en:00:51:01.558
00:53:34.086 : en:00:53:34.086
00:55:16.855 : en:00:55:16.855
00:57:15.265 : en:00:57:15.265
00:58:17.119 : en:00:58:17.119
01:00:56.820 : en:01:00:56.820
01:01:37.277 : en:01:01:37.277
01:03:38.148 : en:01:03:38.148
01:04:39.626 : en:01:04:39.626
01:06:06.671 : en:01:06:06.671
01:09:13.566 : en:01:09:13.566
01:11:58.648 : en:01:11:58.648
01:13:19.061 : en:01:13:19.061
01:16:30.377 : en:01:16:30.377
01:20:20.691 : en:01:20:20.691
01:23:31.924 : en:01:23:31.924
01:26:06.078 : en:01:26:06.078
01:27:52.642 : en:01:27:52.642
01:29:44.421 : en:01:29:44.421
01:33:09.793 : en:01:33:09.793
01:34:50.435 : en:01:34:50.435
01:37:18.958 : en:01:37:18.958
01:39:22.039 : en:01:39:22.039
01:42:31.645 : en:01:42:31.645
01:44:54.288 : en:01:44:54.288
01:49:29.897 : en:01:49:29.897
01:54:31.114 : en:01:54:31.114

Просьба к переливающим на другие сайты, в оформлении указывайте пожалуйста авторство группы R.G. HD-Films pb.wtf



Скачать Стиратель через торрент http://lostpic.net/orig_images/0/7/2/0721b1cc969ad719bc468babe755eeaf.jpg Скачать фильм Стиратель через торрент бесплантно в хорошем качестве В ролях: Арнольд Шварценеггер, Джеймс Каан, Ванесса Уильямс, Джеймс Коберн, Роберт Пасторелли, Джеймс Кромуэлл, Дэнни Нуччи, Энди Романо, ... 9.1 10 19
Торрент: Зарегистрирован [2020-06-01 10:13] · скачан: 131 раз
Статус: √ проверено
Размер: 3.56 GB
Как cкачать? Как скачать Стиратель через торрент | UTorrent

28-11-2019 20:33  

Отключить всю рекламу на сайте

01-06-2020 12:44 Стиратель Скачать торрент  

Даже не буду ничего уточнять : Рейтинг: 3 / 10 (1) pb.wtf



01-06-2020 12:52 Стиратель Скачать торрент  

Ну вот опять 25. Снова какие-то гниды от школоты лезут в тему, качать не качают (наверняка), а оценки ставят, суки обдолбанные. Сам фильм - эталон качественного боевика, в отличии от тех современных компьютерных мультиков, которые смотрит недоразвитая школота, эти дети вермута и портвейна. Раздающему спасибо за его адский труд, хотя чаша его терпения уже переполнена. Огромная благодарность за Вашу выдержку и намерение идти к поставленной цели!!!pb.wtf



01-06-2020 13:16 Стиратель Скачать торрент  

Смотрите в удовольствие, не переживайте Ваш заказ я сделаю, а кому нечем заняться - пусть просто Молча(без объяснений) завидуют.pb.wtf



01-06-2020 15:44 Стиратель Скачать торрент  

Благодарю Вас!!!pb.wtf



04-06-2020 11:32 Стиратель Скачать торрент  

Torvald'90 писал(а):

Ну вот опять 25. Снова какие-то гниды от школоты лезут в тему, качать не качают (наверняка), а оценки ставят, суки обдолбанные. Сам фильм - эталон качественного боевика, в отличии от тех современных компьютерных мультиков, которые смотрит недоразвитая школота, эти дети вермута и портвейна. Раздающему спасибо за его адский труд, хотя чаша его терпения уже переполнена. Огромная благодарность за Вашу выдержку и намерение идти к поставленной цели!!!

Полностью согласен!!! не для голубей!!!pb.wtf



    Дорогой пользователь! Огромная просьба, поблагодарите релизера, оцените раздачу и оставьте свои комментарий, если Вы скачали Стиратель через торрент бесплатно! Внесите свою лепту в развитие PiratBit!
    Комментировать посты могут только пользователи прошедшие не сложную регистрацию
    Показать сообщения:    

    Стиратель через торрент
    Скачать бесплатно Стиратель
    Стиратель скачать торрент
    Стиратель смотреть онлайн
    Cкачать фильм Стиратель бесплатно
    Стиратель скачать торрент в хорошем качестве
    Стиратель смотреть онлайн бесплатно в хорошем качестве


    Вы не можете начинать темы
    Вы не можете отвечать на сообщения
    Вы не можете редактировать свои сообщения
    Вы не можете удалять свои сообщения
    Вы не можете голосовать в опросах
    Вы не можете прикреплять файлы к сообщениям
    Вы можете скачивать файлы