Всегда рабочее зеркало без VPN и Proxy просто перед .vidak.icu напиши любое слово или цифру, Пример http://4918.vidak.icu

MVO

Лицензия

1 сезон

1

1 сезон

iTunes

1 сезон

13

1 сезон

Deluxe

pack

Рекомендуем

Repack

30

ВАЖНО

RePack

MK11

RePack

jed

RePack

fifa19

RePack

RDR2

RePack

NEED FOR SPEED™ PAYBACK

Кинопоиск HD

6 сезон

 Острые козырьки 6 сезон

Все сериалы

все сериалы на PB.wtf

RePack

FAR CRY 5
  
Magnet ссылка

Голливуд / Hollywood / Сезон: 1 / Серии: 1-7 из 7 (Джанет Мокк, Майкл Аппендаль, Даниэль Минахан) [2020, драма., WEBRip] [MVO] (TVShows) pb.wtf

Голливуд через торрент pb.wtf

Размер: 4.9 GB | Добавлен: 2 года 1 мес. назад | Торрент скачан:58 раз
Смотреть онлайн Голливуд | Скачать    Ребята, помогите собрать деньги на оплату серверов!!!

01-06-2020 11:33 Голливуд Скачать торрент  

Голливуд / Hollywood Год выпуска: 2020
Страна: США
Жанр: драма
Продолжительность: ~ 00:45:00

Перевод: Профессиональный (многоголосый закадровый) TVShows

Режиссёр: Джанет Мокк, Майкл Аппендаль, Даниэль Минахан

В ролях: Дэвид Коренсвет, Даррен Крисс, Лора Хэрриер, Джо Мантелло, Дилан МакДермотт, Джейк Пикинг, Джереми Поуп, Холланд Тейлор, Самара Уивинг, Джим Парсонс

Описание: Сюжет переносит зрителей в конец сороковых годов. На дворе наконец-то воцарил мир и спокойствие. Отголоски прошедшей войны по-прежнему слышны, но уже не так отчётливо. Главные действующие лица сериала - представители растущего и развивающегося Голливуда, призванного стать основным источником развлечений и культуры для растущей Америки. Авторы сценария рассказывают зрителям о людях, которые только начинают свой творческий путь в надежде на большие успехи и достижениям. Им приходится столкнуться с недоверием и непонимание со стороны окружающих, однако все же персонажи находят в себе силы, чтобы бороться дальше. Типичные социальные проблемы также оказывают непосредственное влияние на голливудских обитателей. Кто-то вынужден бороться с гендерной дискриминацией, а для кого-то расовые различия становятся проблемой номер один, вызывающей возмущения и непонимание.

rating

Качество: WEBRip
Формат: AVI
Видео: XviD, 704x320, 23,976 fps, ~ 1600 kbps
Аудио 1: 48 kHz, AC3 2 ch, ~192 kbps|TVShows|
Аудио 2: 48 kHz, AC3 2 ch, ~192 kbps
Субтитры: Русские (Netflix), английские (SDH)

Реклама: Отсутствует

Format : AVI
Format/Info : Audio Video Interleave
File size : 638 MiB
Duration : 44mn 40s
Overall bit rate : 1 998 Kbps
Movie name : Голливуд 1х01: Да здравствует Голливуд Ч.1
Director : Бёдвар (WEBRip)
Writing application : VirtualDubModRus 1.5.10.2 (build 2542/release)
Comment : 31.05.2020

Video
ID : 0
Format : MPEG-4 Visual
Format profile : Advanced [email protected]
Format settings, BVOP : 1
Format settings, QPel : No
Format settings, GMC : No warppoints
Format settings, Matrix : Default (MPEG)
Codec ID : XVID
Codec ID/Hint : XviD
Duration : 44mn 40s
Bit rate : 1 600 Kbps
Width : 704 pixels
Height : 320 pixels
Display aspect ratio : 2.2:1
Frame rate : 23.976 (23976/1000) fps
Color space : YUV
Chroma subsampling : 4:2:0
Bit depth : 8 bits
Scan type : Progressive
Compression mode : Lossy
Bits/(Pixel*Frame) : 0.296
Stream size : 511 MiB (80%)
Writing library : XviD 67

Audio #1
ID : 1
Format : AC-3
Format/Info : Audio Coding 3
Mode extension : CM (complete main)
Format settings, Endianness : Big
Codec ID : 2000
Duration : 44mn 40s
Bit rate mode : Constant
Bit rate : 192 Kbps
Channel(s) : 2 channels
Channel positions : Front: L R
Sampling rate : 48.0 KHz
Frame rate : 31.250 fps (1536 spf)
Compression mode : Lossy
Stream size : 61.4 MiB (10%)
Alignment : Split accross interleaves
Interleave, duration : 42 ms (1.00 video frame)
Interleave, preload duratio : 500 ms
Title : TVShows (rus)

Audio #2
ID : 2
Format : AC-3
Format/Info : Audio Coding 3
Mode extension : CM (complete main)
Format settings, Endianness : Big
Codec ID : 2000
Duration : 44mn 40s
Bit rate mode : Constant
Bit rate : 192 Kbps
Channel(s) : 2 channels
Channel positions : Front: L R
Sampling rate : 48.0 KHz
Frame rate : 31.250 fps (1536 spf)
Compression mode : Lossy
Stream size : 61.4 MiB (10%)
Alignment : Split accross interleaves
Interleave, duration : 42 ms (1.00 video frame)
Interleave, preload duratio : 500 ms
Title : Original (eng)
скриншот  скриншот  скриншот  
pb.wtf



Скачать Голливуд через торрент https://i112.fastpic.ru/big/2020/0531/7a/4250f20ef5b21ea3a7f77360e56d857a.jpg Скачать, смотреть онлайн Голливуд бесплантно в хорошем качестве Описание: Сюжет переносит зрителей в конец сороковых годов. На дворе наконец-то воцарил мир и спокойствие. Отголоски прошедшей войны ... 10 10 1
Торрент: Зарегистрирован [2020-06-01 11:33] · скачан: 58 раз
Статус: √ проверено
Размер: 4.9 GB
Как cкачать? Как скачать Голливуд через торрент | UTorrent

28-11-2019 20:33  

Отключить всю рекламу на сайте

    Дорогой пользователь! Огромная просьба, поблагодарите релизера, оцените раздачу и оставьте свои комментарий, если Вы скачали Голливуд через торрент бесплатно!
    Комментировать посты могут только пользователи прошедшие не сложную регистрацию
    Показать сообщения:    

    Голливуд через торрент
    Скачать бесплатно Голливуд
    Голливуд скачать торрент
    Голливуд смотреть онлайн
    Cкачать фильм Голливуд бесплатно
    Голливуд скачать торрент в хорошем качестве
    Голливуд смотреть онлайн бесплатно в хорошем качестве


    Вы не можете начинать темы
    Вы не можете отвечать на сообщения
    Вы не можете редактировать свои сообщения
    Вы не можете удалять свои сообщения
    Вы не можете голосовать в опросах
    Вы не можете прикреплять файлы к сообщениям
    Вы можете скачивать файлы