Ссылка на приватное зеркало нашего сайта всего за 1$. Внимание количество ограничено!!!

2 сезон

iTunes

1 сезон

1

iTunes

iTunes

iTunes

1 сезон

RePack

30

ИГРА 18+

pack

ВАЖНО

!!Акция!!

Alien_RageХит недели

RePack

MK11
pack

Забери бонус

RePack

jed

!!Акция!!

Alien_Rage

RePack

fifa19

RePack

Assassins Creed: Odyssey

RePack

NEED FOR SPEED™ PAYBACK

4 сезон

9 сезон

Бесстыжие 9 сезон

Все сериалы

все сериалы на PB.wtf

RePack

FAR CRY 5
  

Чёрная лестница / Серии: 1-20 из 20 (Сахат Дурсунов) [2020, триллер, драма, SATRip-AVC] pb.wtf

Чёрная лестница через торрент pb.wtf

Размер: 11.38 GB | Добавлен: 4 мес. 9 д. назад | Торрент скачан:17 раз
Скачать  

01-06-2020 13:16 Чёрная лестница Скачать торрент  

Чёрная лестница
Год выпуска: 2020
Страна: Россия | Ан-фильм
Жанр: триллер, драма
Продолжительность: 00:48:00
Субтитры: нет
Режиссёр: Сахат Дурсунов

В ролях:Алексей Матошин, Алексей Ушаков, Марина Коняшкина, Денис Васильев, Игорь Жижикин, Марина Куделинская, Азамат Нигманов, Денис Старков, Евгений Березовский, Павел Фартуков
Описание:
Вадим Тельцов переезжает в столицу, где получает должность оперативника уголовного розыска и «однушку» в спальном районе Москвы. Быт налажен, работа есть, но однажды одно вроде бы стандартное дело переворачивает жизнь циничного опера с ног на голову: расследование убийства бизнесмена Юсова знакомит Тельцова с молодым руфером Максом, сыном убитого. Коллеги Тельцова подозревают Макса в убийстве отца, но Вадим уверен, что парень невиновен. Из-за оплошности Тельцова увольняют, но он не отчаивается и открывает своё детективное агентство, куда берёт на работу нового знакомого.

Качество: SATRip-AVC
Формат: MKV
Видео кодек: H.264
Аудио кодек: AC3
Видео: MPEG4 Video (H264), 720х400, 25fps,1500 Kbps,bit/pixel 0.208
Аудио : AC3 48000Hz, stereo, 192 kbps,2 ch
Общее
Уникальный идентификатор : 222320498846311450400735402496246065857 (0xA7415EDF81629689ADD4E739342EAAC1)
Полное имя : I:\Чёрная лестница\01 серия_Чёрная лестница_rip by_Aleksan55.mkv
Формат : Matroska
Версия формата : Version 2
Размер файла : 587 Мбайт
Продолжительность : 48 м. 28 с.
Общий поток : 1694 Кбит/сек
Дата кодирования : UTC 2020-06-01 12:25:57
Программа кодирования : mkvmerge v7.8.0 ('River Man') 32bit built on Apr 3 2015 12:11:22
Библиотека кодирования : libebml v1.3.1 + libmatroska v1.4.2

Видео
Идентификатор : 1
Формат : AVC
Формат/Информация : Advanced Video Codec
Профиль формата : High@L4.1
Настройки формата : CABAC / 12 Ref Frames
Параметр CABAC формата : Да
Параметр RefFrames формата : 12 кадров
Идентификатор кодека : V_MPEG4/ISO/AVC
Продолжительность : 48 м. 28 с.
Битрейт : 1500 Кбит/сек
Ширина : 720 пикселей
Высота : 400 пикселей
Соотношение сторон : 16:9
Режим частоты кадров : Постоянный
Частота кадров : 25,000 кадров/сек
Цветовое пространство : YUV
Субдискретизация насыщенности : 4:2:0
Битовая глубина : 8 бит
Тип развёртки : Прогрессивная
Бит/(Пиксели*Кадры) : 0.208
Размер потока : 509 Мбайт (87%)
Библиотека кодирования : x264 core 146 r2538 121396c
Настройки программы : cabac=1 / ref=12 / deblock=1:-2:-2 / analyse=0x3:0x133 / me=umh / subme=9 / psy=1 / psy_rd=1.00:0.15 / mixed_ref=0 / me_range=24 / chroma_me=1 / trellis=2 / 8x8dct=1 / cqm=0 / deadzone=21,11 / fast_pskip=0 / chroma_qp_offset=-3 / threads=10 / lookahead_threads=5 / sliced_threads=0 / nr=0 / decimate=0 / interlaced=0 / bluray_compat=0 / constrained_intra=0 / bframes=12 / b_pyramid=2 / b_adapt=2 / b_bias=0 / direct=3 / weightb=1 / open_gop=0 / weightp=2 / keyint=250 / keyint_min=25 / scenecut=40 / intra_refresh=0 / rc_lookahead=40 / rc=2pass / mbtree=1 / bitrate=1500 / ratetol=1.0 / qcomp=0.60 / qpmin=0 / qpmax=60 / qpstep=4 / cplxblur=20.0 / qblur=0.5 / ip_ratio=1.40 / aq=1:1.00
Default : Да
Forced : Нет
Цветовой диапазон : Limited
Основные цвета : BT.601 PAL
Характеристики трансфера : BT.470 System B/G
Коэффициенты матрицы : BT.470 System B/G

Аудио
Идентификатор : 2
Формат : AC-3
Формат/Информация : Audio Coding 3
Коммерческое название : Dolby Digital
Идентификатор кодека : A_AC3
Продолжительность : 48 м. 28 с.
Вид битрейта : Постоянный
Битрейт : 192 Кбит/сек
Каналы : 2 канала
ChannelLayout : L R
Частота : 48,0 КГц
Частота кадров : 31,250 кадров/сек (1536 SPF)
Метод сжатия : С потерями
Размер потока : 66,6 Мбайт (11%)
ServiceKind/String : Complete Main
Default : Да
Forced : Нет
Добавлены 19-20 серии.pb.wtf



Скачать Чёрная лестница через торрент http://i112.fastpic.ru/big/2020/0531/a9/3a9c601297b8ab234e9de607aa1dcda9.jpg Скачать фильм Чёрная лестница через торрент бесплантно в хорошем качестве Описание:Вадим Тельцов переезжает в столицу, где получает должность оперативника уголовного розыска и «однушку» в спальном районе Москвы. ... 9.9 10 10
Торрент: Зарегистрирован [2020-06-12 13:22] · скачан: 17 раз
Статус: √ проверено
Размер: 11.38 GB
Как cкачать? Как скачать Чёрная лестница через торрент | qTorrent

% Раздел Тема Автор DL S | L
Наши сериалы [ 25.01 GB ] Чёрная лестница / Сезон: 1 / Серии: 1-20 из 20 [2020 WEBRip 720p] bober100 Скачать
1 | 0
Наши сериалы [ 14.85 GB ] Чёрная лестница / Сезон: 1 / Серии: 1-20 из 20 [2020 WEBRip-AVC] bober100 Скачать
1 | 0
Наши сериалы [ 12.2 GB ] Чёрная лестница / Сезон: 1 / Серии: 1-20 из 20 [2020 WEBRip] bober100 Скачать
2 | 0
Наши сериалы [ 42.23 GB ] Чёрная лестница / Сезон: 1 / Серии: 1-20 из 20 [2020 WEBRip 1080p] bober100 Скачать
1 | 0
Наши сериалы [ 13.44 GB ] Чёрная лестница / Сезон: 1 / Серии: 1-20 из 20 [2020 SATRip] bober100 Скачать
1 | 0


Последний раз редактировалось: aleksan55 (2020-06-12 13:22), всего редактировалось 9 раз(а)

28-11-2019 20:33  

Отключить всю рекламу на сайте

01-06-2020 14:14 Чёрная лестница Скачать торрент  

Цитата:

где получает должность оперативника уголовного розыска и «однушку»

в Москве pb.wtf



    Дорогой пользователь! Огромная просьба, поблагодарите релизера, оцените раздачу и оставьте свои комментарий, если Вы скачали Чёрная лестница через торрент бесплатно! Внесите свою лепту в развитие PiratBit!
    Комментировать посты могут только пользователи прошедшие не сложную регистрацию
    Показать сообщения:    

    Чёрная лестница через торрент
    Скачать бесплатно Чёрная лестница
    Чёрная лестница скачать торрент
    Чёрная лестница смотреть онлайн
    Cкачать фильм Чёрная лестница бесплатно
    Чёрная лестница скачать торрент в хорошем качестве
    Чёрная лестница смотреть онлайн бесплатно в хорошем качестве


    Вы не можете начинать темы
    Вы не можете отвечать на сообщения
    Вы не можете редактировать свои сообщения
    Вы не можете удалять свои сообщения
    Вы не можете голосовать в опросах
    Вы не можете прикреплять файлы к сообщениям
    Вы можете скачивать файлы