2 сезон

iTunes

MVO

1

2 сезон

iTunes

iTunes

1 сезон

RePack

30

Новинка

ВАЖНО

ИГРА 18+

pack

RePack

MK11
pack

Легкие деньги

RePack

jed

RePack

fifa19

RePack

RDR2

RePack

NEED FOR SPEED™ PAYBACK

4 сезон

9 сезон

Бесстыжие 9 сезон

Все сериалы

все сериалы на PB.wtf

RePack

FAR CRY 5

Anonymous, доброй ночи, мы не успеваем собрать деньги на оплату серверов за декабрь и январь, помогите нам пожалуйста в это трудное время. В качестве благодарности мы отключим Вам всю рекламу на сайте (укажите свой ник в строку Ваше имя)!

×
  
Magnet ссылка

Отчаянный / Desperado (Роберт Родригес) [1995 г., Боевик, триллер, криминал, BDRip 720p / 60 FPS, Профессиональный (многоголосый)] от R.G. HD-Films pb.wtf

Отчаянный через торрент pb.wtf

Размер: 4.43 GB | Добавлен: 7 мес. назад | Торрент скачан:55 раз
Скачать  

01-06-2020 13:48 Отчаянный Скачать торрент  

Отчаянный / Desperado
Год выпуска: : 1995
Страна: : США
Жанр: : Боевик, триллер, криминал
Продолжительность: 01:44:30
Перевод: Профессиональный многоголосый (Blu-ray CEE)
Субтитры: Russian, English

Режиссер: Роберт Родригес

Бюджет: $7 000 000
Премьера в мире: 25 августа 1995

rating

В ролях: Антонио Бандерас, Сальма Хайек, Жоаким ди Алмейда, Чич Марин, Стив Бушеми, Карлос Гомес, Квентин Тарантино, Тито Ларрива, Энджел Авилес, Дэнни Трехо, Абрахам Вердуско, Карлос Гальярдо

Сюжет фильма: Он - бесстрашный герой, ведущий охоту на короля преступного мира. Но - исполнить приговор невозможно. Но - вновь на карту поставлена жизнь любимой, и начинается жестокое противостояние одиночки и армии вооруженных до зубов головорезов.

Качество видео: BDRip 720p / 60 FPS
Формат: MKV
Видео кодек: H.264
Аудио кодек: AC3
Видео : x264, 1280 x 688 ( 1,85:1 ), 5685 kbps, 60,000 fps, ( 0.108 bpp)
Аудио : Русский, AC-3, 48.0 KHz, 6 ch, 384 Kbps MVO (Blu-ray CEE)
Релиз от:

скриншот   скриншот   скриншот   скриншот   скриншот   скриншот  Автор рипа: slaventi-69
Общее
Уникальный идентификатор : 179471212018177679264115143189503226445 (0x8704E5EC615E83D39459D55CA725324D)
Полное имя : F:\Desperado.(1995).BDRip.720p.(60 Fps).mkv
Формат : Matroska
Версия формата : Version 4
Размер файла : 4,43 Гбайт
Продолжительность : 1 ч. 44 м.
Общий поток : 6073 Кбит/сек
Название фильма : Отчаянный / Desperado (1995) BDRip 720p (60 Fps)
Дата кодирования : UTC 2020-05-18 15:01:51
Программа кодирования : mkvmerge v12.0.0 ('Trust / Lust') 64bit
Библиотека кодирования : libebml v1.3.4 + libmatroska v1.4.5

Видео
Идентификатор : 1
Формат : AVC
Формат/Информация : Advanced Video Codec
Профиль формата : High@L4.1
Настройки формата : CABAC / 8 Ref Frames
Параметр CABAC формата : Да
Параметр RefFrames формата : 8 кадров
Идентификатор кодека : V_MPEG4/ISO/AVC
Продолжительность : 1 ч. 44 м.
Битрейт : 5685 Кбит/сек
Ширина : 1280 пикселей
Высота : 688 пикселей
Соотношение сторон : 1,85:1
Режим частоты кадров : Постоянный
Частота кадров : 60,000 кадров/сек
Цветовое пространство : YUV
Субдискретизация насыщенности : 4:2:0
Битовая глубина : 8 бит
Тип развёртки : Прогрессивная
Бит/(Пиксели*Кадры) : 0.108
Размер потока : 4,15 Гбайт (94%)
Заголовок : slaventi-69 ( R.G. HD-Films | 60 fps )
Библиотека кодирования : x264 core 130 r2273 b3065e6
Настройки программы : cabac=1 / ref=8 / deblock=1:-1:-1 / analyse=0x3:0x133 / me=umh / subme=9 / psy=1 / psy_rd=1.00:0.00 / mixed_ref=1 / me_range=28 / chroma_me=1 / trellis=2 / 8x8dct=1 / cqm=0 / deadzone=21,11 / fast_pskip=0 / chroma_qp_offset=-2 / threads=4 / lookahead_threads=3 / sliced_threads=0 / nr=0 / decimate=1 / interlaced=0 / bluray_compat=0 / constrained_intra=0 / bframes=5 / b_pyramid=2 / b_adapt=2 / b_bias=0 / direct=3 / weightb=1 / open_gop=0 / weightp=2 / keyint=600 / keyint_min=23 / scenecut=40 / intra_refresh=0 / rc=crf / mbtree=0 / crf=19.0 / qcomp=0.60 / qpmin=0 / qpmax=69 / qpstep=4 / ip_ratio=1.40 / pb_ratio=1.30 / aq=1:1.00
Язык : English
Default : Да
Forced : Нет

Аудио
Идентификатор : 2
Формат : AC-3
Формат/Информация : Audio Coding 3
Коммерческое название : Dolby Digital
Идентификатор кодека : A_AC3
Продолжительность : 1 ч. 44 м.
Вид битрейта : Постоянный
Битрейт : 384 Кбит/сек
Каналы : 6 каналов
Channel layout : L R C LFE Ls Rs
Частота : 48,0 КГц
Частота кадров : 31,250 кадров/сек (1536 SPF)
Битовая глубина : 16 бит
Метод сжатия : С потерями
Размер потока : 287 Мбайт (6%)
Заголовок : MVO (Blu-ray CEE)
Язык : Russian
ServiceKind/String : Complete Main
Default : Да
Forced : Нет

Текст #1
Идентификатор : 3
Формат : UTF-8
Идентификатор кодека : S_TEXT/UTF8
Идентификатор кодека/Информация : UTF-8 Plain Text
Продолжительность : 1 ч. 38 м.
Битрейт : 51 бит/сек
ElementCount : 974
Размер потока : 37,4 Кбайт (0%)
Заголовок : Пучков
Язык : Russian
Default : Нет
Forced : Нет

Текст #2
Идентификатор : 4
Формат : UTF-8
Идентификатор кодека : S_TEXT/UTF8
Идентификатор кодека/Информация : UTF-8 Plain Text
Продолжительность : 1 ч. 38 м.
Битрейт : 33 бит/сек
ElementCount : 967
Размер потока : 23,8 Кбайт (0%)
Язык : English
Default : Нет
Forced : Нет

Меню
00:00:00.000 : :00:00:00.000
00:11:03.913 : :00:11:03.913
00:15:41.149 : :00:15:41.149
00:18:59.930 : :00:18:59.930
00:29:20.842 : :00:29:20.842
00:41:33.491 : :00:41:33.491
00:45:30.353 : :00:45:30.353
00:48:26.946 : :00:48:26.946
00:51:59.366 : :00:51:59.366
00:56:18.083 : :00:56:18.083
01:03:51.786 : :01:03:51.786
01:12:59.292 : :01:12:59.292
01:17:30.062 : :01:17:30.062
01:24:51.837 : :01:24:51.837
01:32:33.131 : :01:32:33.131
01:38:15.139 : :01:38:15.139

Просьба к переливающим на другие сайты, в оформлении указывайте пожалуйста авторство группы R.G. HD-Films pb.wtf



Скачать Отчаянный через торрент http://lostpic.net/orig_images/9/5/b/95b6ab2b67f44c6187e95bae869b343c.jpg Скачать фильм Отчаянный через торрент бесплантно в хорошем качестве В ролях: Антонио Бандерас, Сальма Хайек, Жоаким ди Алмейда, Чич Марин, Стив Бушеми, Карлос Гомес, Квентин Тарантино, Тито Ларрива, Энджел ... 10 10 6
Info! Золотая раздача, скачанное не засчитывается.
Торрент: Зарегистрирован [2020-06-01 13:48] · скачан: 55 раз
Статус: √ проверено
Размер: 4.43 GB
Как cкачать? Как скачать Отчаянный через торрент | UTorrent

28-11-2019 20:33  

Отключить всю рекламу на сайте

01-06-2020 16:21 Отчаянный Скачать торрент  

Да ну его Гоблина, ругается иногда, понимаю что его переводы самые правильные и по существу, но пусть лучше будет профессиональный. Спасибо релизеру за его труд!!! А фильм отправляется в золотой фонд.pb.wtf



    Дорогой пользователь! Огромная просьба, поблагодарите релизера, оцените раздачу и оставьте свои комментарий, если Вы скачали Отчаянный через торрент бесплатно! Внесите свою лепту в развитие PiratBit!
    Комментировать посты могут только пользователи прошедшие не сложную регистрацию
    Показать сообщения:    

    Отчаянный через торрент
    Скачать бесплатно Отчаянный
    Отчаянный скачать торрент
    Отчаянный смотреть онлайн
    Cкачать фильм Отчаянный бесплатно
    Отчаянный скачать торрент в хорошем качестве
    Отчаянный смотреть онлайн бесплатно в хорошем качестве


    Вы не можете начинать темы
    Вы не можете отвечать на сообщения
    Вы не можете редактировать свои сообщения
    Вы не можете удалять свои сообщения
    Вы не можете голосовать в опросах
    Вы не можете прикреплять файлы к сообщениям
    Вы можете скачивать файлы