2 сезон

iTunes

1 сезон

1

iTunes

iTunes

iTunes

1 сезон

RePack

30

ИГРА 18+

pack

ВАЖНО

!!Акция!!

Alien_RageХит недели

RePack

MK11
pack

Забери бонус

RePack

jed

!!Акция!!

Alien_Rage

RePack

fifa19

RePack

Assassins Creed: Odyssey

RePack

NEED FOR SPEED™ PAYBACK

4 сезон

9 сезон

Бесстыжие 9 сезон

Все сериалы

все сериалы на PB.wtf

RePack

FAR CRY 5
  

Чёрная лестница / Сезон: 1 / Серии: 1-20 из 20 (Сахат Дурсунов) [2020, Детектив, драма, криминал, SATRip] pb.wtf

Чёрная лестница через торрент pb.wtf

Размер: 13.44 GB | Добавлен: 4 мес. 19 д. назад | Торрент скачан:30 раз
Скачать  

01-06-2020 16:46 Чёрная лестница Скачать торрент  

Чёрная лестница
Год выпуска: 2020
Страна: Россия
Жанр: Детектив, драма, криминал
Продолжительность: ~ 00:49:00
Перевод: Не требуется
Субтитры: отсутствуют

Режиссер: Сахат Дурсунов



В ролях: Алексей Матошин, Алексей Ушаков (V), Марина Коняшкина, Денис Васильев, Игорь Жижикин, Марина Куделинская, Азамат Нигманов, Денис Старков, Евгений Березовский, Павел Фартуков, Ирина Темичева, Александр Касаткин (II), Анастасия Чистякова (II), Виктор Пилипко, Владимир Щербаков, Алексей Красовский (II), Валерий Новиков

Описание: Казалось бы, что может быть общего у старшего оперуполномоченного уголовного розыска Вадима Тельцова (Алексей Матошин) и отчаянного покорителя московских высоток, руфера Макса Юсова (Алексей Ушаков). Но в один прекрасный день судьба сводит их – парня подозревают в убийстве отца. Стандартное, вроде бы, дело и случайное знакомство переворачивают жизнь простого опера с ног на голову и его карьере оперативника быстро приходит конец. Однако, Тельцов не отчаивается и открывает детективное агентство, куда приглашает на работу нового знакомого. Благодаря сноровке, умению ходить по крышам и знанию новейших технических устройств Макс становится отличным союзником и товарищем закоренелому полицейскому. Сложные расследования и личные драмы сближают напарников, образуя единство, которое может быть только между близкими друзьями и родными людьми.

Качество: SATRip
Формат: AVI

Видео: XviD,~ 1800 Кбит/с, 720x400, 25 Кадр/с
Аудио: 48 kHz, MP3, 2 ch, ~ 192 kbps avg
скриншот  скриншот  скриншот  скриншот  

Общее
Полное имя : C:\Chernaya.lestnica.2019.XviD.SATRip.ExKinoRay\Chernaya.lestnica.E01.2019.XviD.SATRip.ExKinoRay.avi
Формат : AVI
Формат/Информация : Audio Video Interleave
Размер файла : 694 Мбайт
Продолжительность : 48 м. 27 с.
Общий поток : 2002 Кбит/сек
Программа кодирования : VirtualDubMod 1.5.10.3 | www.virtualdub-fr.org || (build 2550/release)
Библиотека кодирования : VirtualDubMod build 2550/release

Видео
Идентификатор : 0
Формат : MPEG-4 Visual
Профиль формата : Advanced Simple@L5
Настройки формата : BVOP1 / Custom Matrix
Параметр BVOP формата : 1
Параметр QPel формата : Нет
Параметр GMC формата : Без точки перехода
Параметр матрицы формата : Выборочная
Идентификатор кодека : XVID
Идентификатор кодека/Подсказка : XviD
Продолжительность : 48 м. 27 с.
Битрейт : 1721 Кбит/сек
Ширина : 720 пикселей
Высота : 400 пикселей
Соотношение сторон : 16:9
Частота кадров : 25,000 кадров/сек
Цветовое пространство : YUV
Субдискретизация насыщенности : 4:2:0
Битовая глубина : 8 бит
Тип развёртки : Прогрессивная
Метод сжатия : С потерями
Бит/(Пиксели*Кадры) : 0.239
Размер потока : 597 Мбайт (86%)
Библиотека кодирования : XviD 73

Аудио
Идентификатор : 1
Формат : MPEG Audio
Версия формата : Version 1
Профиль формата : Layer 3
Настройки формата : Joint stereo / MS Stereo
Идентификатор кодека : 55
Идентификатор кодека/Подсказка : MP3
Продолжительность : 48 м. 27 с.
Вид битрейта : Постоянный
Битрейт : 192 Кбит/сек
Каналы : 2 канала
Частота : 48,0 КГц
Частота кадров : 41,667 кадра/сек (1152 SPF)
Метод сжатия : С потерями
Размер потока : 66,5 Мбайт (10%)
Выравнивание : Соединение по промежуткам
Библиотека кодирования : LAME3.99r
Настройки программы : -m j -V 4 -q 0 -lowpass 18.6 -b 192

Когда раздача ведётся путём добавления новых серий, при каждом добавлении создётся новый торрент. Чтобы начать докачку новой серии, пользователям необходимо сделать следующее:
(1) остановить скачивание,
(2) удалить старый торрент у себя из клиента (старые серии удалять не надо),
(3) скачать новый торрент и запустить его у себя в клиенте вместо старого, при этом указать клиенту путь в старую папку, куда и должно происходить скачивание новых серий.
Ваш клиент при этом должен произвести хеширование (проверку) старой папки (если не производит сам - помогите ему сделать это), и будет докачивать только те серии, которых у вас ещё нет. Старые серии при этом не удаляются, а продолжают раздаваться!
Eсли вы уже удалили старые серии, то предотвратить повторную закачку старых серий можно, отжав галочку в соответсвующих местах при запуске нового торрента. По возможности, желательно не удалять старые серии как можно дольше, чтобы релизер не столько продолжал раздавать старые серии, а смог сконцентрироваться на новых.
pb.wtf



Скачать Чёрная лестница через торрент https://i112.fastpic.ru/big/2020/0601/20/abe07f5468682901cb13cd38d23b3720.jpg Скачать фильм Чёрная лестница через торрент бесплантно в хорошем качестве Описание: Казалось бы, что может быть общего у старшего оперуполномоченного уголовного розыска Вадима Тельцова (Алексей Матошин) и ... 10 10 9
Торрент: Зарегистрирован [2020-06-12 14:50] · скачан: 30 раз
Статус: √ проверено
Размер: 13.44 GB
Как cкачать? Как скачать Чёрная лестница через торрент | qTorrent

% Раздел Тема Автор DL S | L
Наши сериалы [ 25.01 GB ] Чёрная лестница / Сезон: 1 / Серии: 1-20 из 20 [2020 WEBRip 720p] bober100 Скачать
1 | 0
Наши сериалы [ 14.85 GB ] Чёрная лестница / Сезон: 1 / Серии: 1-20 из 20 [2020 WEBRip-AVC] bober100 Скачать
1 | 0
Наши сериалы [ 12.2 GB ] Чёрная лестница / Сезон: 1 / Серии: 1-20 из 20 [2020 WEBRip] bober100 Скачать
2 | 0
Наши сериалы [ 42.23 GB ] Чёрная лестница / Сезон: 1 / Серии: 1-20 из 20 [2020 WEBRip 1080p] bober100 Скачать
1 | 0

28-11-2019 20:33  

Отключить всю рекламу на сайте

    Дорогой пользователь! Огромная просьба, поблагодарите релизера, оцените раздачу и оставьте свои комментарий, если Вы скачали Чёрная лестница через торрент бесплатно! Внесите свою лепту в развитие PiratBit!
    Комментировать посты могут только пользователи прошедшие не сложную регистрацию
    Показать сообщения:    

    Чёрная лестница через торрент
    Скачать бесплатно Чёрная лестница
    Чёрная лестница скачать торрент
    Чёрная лестница смотреть онлайн
    Cкачать фильм Чёрная лестница бесплатно
    Чёрная лестница скачать торрент в хорошем качестве
    Чёрная лестница смотреть онлайн бесплатно в хорошем качестве


    Вы не можете начинать темы
    Вы не можете отвечать на сообщения
    Вы не можете редактировать свои сообщения
    Вы не можете удалять свои сообщения
    Вы не можете голосовать в опросах
    Вы не можете прикреплять файлы к сообщениям
    Вы можете скачивать файлы