Ссылка на приватное зеркало нашего сайта всего за 1$. Внимание количество ограничено!!!

2 сезон

iTunes

1 сезон

1

iTunes

iTunes

iTunes

1 сезон

RePack

30

ИГРА 18+

pack

ВАЖНО

!!Акция!!

Alien_RageХит недели

RePack

MK11
pack

Забери бонус

RePack

jed

!!Акция!!

Alien_Rage

RePack

fifa19

RePack

Assassins Creed: Odyssey

RePack

NEED FOR SPEED™ PAYBACK

4 сезон

9 сезон

Бесстыжие 9 сезон

Все сериалы

все сериалы на PB.wtf

RePack

FAR CRY 5
  

Чёрная лестница / Сезон: 1 / Серии: 1-20 из 20 (Сахат Дурсунов) [2020, Детектив, драма, криминал, WEBRip 1080p] pb.wtf

Чёрная лестница через торрент pb.wtf

Размер: 42.23 GB | Добавлен: 4 мес. 13 д. назад | Торрент скачан:11 раз
Скачать  

01-06-2020 19:36 Чёрная лестница Скачать торрент  

Чёрная лестница
Год выпуска: 2020
Страна: Россия
Жанр: Детектив, драма, криминал
Продолжительность: ~ 00:49:00
Перевод: Не требуется
Субтитры: отсутствуют

Режиссер: Сахат Дурсунов



В ролях: Алексей Матошин, Алексей Ушаков (V), Марина Коняшкина, Денис Васильев, Игорь Жижикин, Марина Куделинская, Азамат Нигманов, Денис Старков, Евгений Березовский, Павел Фартуков, Ирина Темичева, Александр Касаткин (II), Анастасия Чистякова (II), Виктор Пилипко, Владимир Щербаков, Алексей Красовский (II), Валерий Новиков

Описание: Казалось бы, что может быть общего у старшего оперуполномоченного уголовного розыска Вадима Тельцова (Алексей Матошин) и отчаянного покорителя московских высоток, руфера Макса Юсова (Алексей Ушаков). Но в один прекрасный день судьба сводит их – парня подозревают в убийстве отца. Стандартное, вроде бы, дело и случайное знакомство переворачивают жизнь простого опера с ног на голову и его карьере оперативника быстро приходит конец. Однако, Тельцов не отчаивается и открывает детективное агентство, куда приглашает на работу нового знакомого. Благодаря сноровке, умению ходить по крышам и знанию новейших технических устройств Макс становится отличным союзником и товарищем закоренелому полицейскому. Сложные расследования и личные драмы сближают напарников, образуя единство, которое может быть только между близкими друзьями и родными людьми.

Качество: WEBRip 1080p
Формат: MKV

Видео: 1920х1080 (16:9), 25 fps, AVC MPEG-4 (x264), High@L4.1 ~ 6000 kbps avg, 0.116 bit/pixel
Аудио: 48.0 kHz, AC3 Dolby Digital, 2/0 (L,R) ch, ~ 192 kbps
скриншот  скриншот  скриншот  скриншот  

Общее
Уникальный идентификатор : 187731480826050361875161148082189707399 (0x8D3BC49E725B4EE7836F0FCBC7932887)
Полное имя : C:\Chernaya.lestnica.2019.WEB-DL.(1080p).ExKinoRay\Chernaya.lestnica.E01.2019.WEB-DL.(1080p).ExKinoRay.mkv
Формат : Matroska
Версия формата : Version 4
Размер файла : 2,11 Гбайт
Продолжительность : 48 м. 50 с.
Режим общего битрейта : Постоянный
Общий поток : 6 171 Кбит/сек
Дата кодирования : UTC 2020-06-01 19:12:35
Программа кодирования : mkvmerge v6.9.1 ('Blue Panther') 64bit built on Apr 18 2014 18:23:38
Библиотека кодирования : libebml v1.3.0 + libmatroska v1.4.1

Видео
Идентификатор : 1
Формат : AVC
Формат/Информация : Advanced Video Codec
Профиль формата : High@L4.1
Настройки формата : 2 Ref Frames
Параметр CABAC формата : Нет
Параметр RefFrames формата : 2 кадра
Идентификатор кодека : V_MPEG4/ISO/AVC
Продолжительность : 48 м. 50 с.
Вид битрейта : Постоянный
Битрейт : 6 000 Кбит/сек
Ширина : 1 920 пикселей
Высота : 1 080 пикселей
Соотношение сторон : 16:9
Режим частоты кадров : Постоянный
Частота кадров : 25,000 кадров/сек
Стандарт вещания : PAL
Цветовое пространство : YUV
Субдискретизация насыщенности : 4:2:0
Битовая глубина : 8 бит
Тип развёртки : Прогрессивная
Бит/(Пиксели*Кадры) : 0.116
Размер потока : 2,00 Гбайт (95%)
Default : Да
Forced : Нет
Цветовой диапазон : Limited
Основные цвета : BT.709
Характеристики трансфера : BT.709
Коэффициенты матрицы : BT.709
Duration_Source : General_Duration

Аудио
Идентификатор : 2
Формат : AC-3
Формат/Информация : Audio Coding 3
Коммерческое название : Dolby Digital
Идентификатор кодека : A_AC3
Продолжительность : 48 м. 50 с.
Вид битрейта : Постоянный
Битрейт : 192 Кбит/сек
Каналы : 2 канала
Channel layout : L R
Частота : 48,0 КГц
Частота кадров : 31,250 кадров/сек (1536 SPF)
Метод сжатия : С потерями
Размер потока : 67,1 Мбайт (3%)
Язык : Russian
Service kind : Complete Main
Default : Да
Forced : Нет
Duration_Source : General_Duration

Когда раздача ведётся путём добавления новых серий, при каждом добавлении создётся новый торрент. Чтобы начать докачку новой серии, пользователям необходимо сделать следующее:
(1) остановить скачивание,
(2) удалить старый торрент у себя из клиента (старые серии удалять не надо),
(3) скачать новый торрент и запустить его у себя в клиенте вместо старого, при этом указать клиенту путь в старую папку, куда и должно происходить скачивание новых серий.
Ваш клиент при этом должен произвести хеширование (проверку) старой папки (если не производит сам - помогите ему сделать это), и будет докачивать только те серии, которых у вас ещё нет. Старые серии при этом не удаляются, а продолжают раздаваться!
Eсли вы уже удалили старые серии, то предотвратить повторную закачку старых серий можно, отжав галочку в соответсвующих местах при запуске нового торрента. По возможности, желательно не удалять старые серии как можно дольше, чтобы релизер не столько продолжал раздавать старые серии, а смог сконцентрироваться на новых.
pb.wtf



Скачать Чёрная лестница через торрент http://3.lostpic.net/images/2020/06/01/44cb26d3e4c5bfe8cdd9deba44460075.th.jpg Скачать фильм Чёрная лестница через торрент бесплантно в хорошем качестве Описание: Казалось бы, что может быть общего у старшего оперуполномоченного уголовного розыска Вадима Тельцова (Алексей Матошин) и ... 10 10 4
Торрент: Зарегистрирован [2020-06-12 23:21] · скачан: 11 раз
Статус: √ проверено
Размер: 42.23 GB
Как cкачать? Как скачать Чёрная лестница через торрент | qTorrent

% Раздел Тема Автор DL S | L
Наши сериалы [ 25.01 GB ] Чёрная лестница / Сезон: 1 / Серии: 1-20 из 20 [2020 WEBRip 720p] bober100 Скачать
1 | 0
Наши сериалы [ 14.85 GB ] Чёрная лестница / Сезон: 1 / Серии: 1-20 из 20 [2020 WEBRip-AVC] bober100 Скачать
1 | 0
Наши сериалы [ 12.2 GB ] Чёрная лестница / Сезон: 1 / Серии: 1-20 из 20 [2020 WEBRip] bober100 Скачать
2 | 0
Наши сериалы [ 13.44 GB ] Чёрная лестница / Сезон: 1 / Серии: 1-20 из 20 [2020 SATRip] bober100 Скачать
1 | 0

28-11-2019 20:33  

Отключить всю рекламу на сайте

    Дорогой пользователь! Огромная просьба, поблагодарите релизера, оцените раздачу и оставьте свои комментарий, если Вы скачали Чёрная лестница через торрент бесплатно! Внесите свою лепту в развитие PiratBit!
    Комментировать посты могут только пользователи прошедшие не сложную регистрацию
    Показать сообщения:    

    Чёрная лестница через торрент
    Скачать бесплатно Чёрная лестница
    Чёрная лестница скачать торрент
    Чёрная лестница смотреть онлайн
    Cкачать фильм Чёрная лестница бесплатно
    Чёрная лестница скачать торрент в хорошем качестве
    Чёрная лестница смотреть онлайн бесплатно в хорошем качестве


    Вы не можете начинать темы
    Вы не можете отвечать на сообщения
    Вы не можете редактировать свои сообщения
    Вы не можете удалять свои сообщения
    Вы не можете голосовать в опросах
    Вы не можете прикреплять файлы к сообщениям
    Вы можете скачивать файлы