Ссылка на приватное зеркало всего за 1$. Внимание количество ограничено!!!

iTunes

iTunes

iTunes

1

iTunes

iTunes

iTunes

iTunes

iTunes

30
pack

$ от Little Big

ВАЖНО

!!Акция!!

Alien_RageХит недели

RePack

Resident Evil 21

ИГРА 18+

pack

RePack

jed

!!Акция!!

Alien_Rage

RePack

fifa19

RePack

Assassins Creed: Odyssey

RePack

NEED FOR SPEED™ PAYBACK

4 сезон

9 сезон

Бесстыжие 9 сезон

Все сериалы

все сериалы на PB.wtf

RePack

FAR CRY 5
  

Чёрная лестница / Сезон: 1 / Серии: 1-20 из 20 (Сахат Дурсунов) [2020, Детектив, драма, криминал, WEBRip] pb.wtf

Чёрная лестница через торрент pb.wtf

Раздают: 3 [ 110 KB/s ]
Размер: 12.2 GB | Добавлен: 29 д. назад | Торрент скачан:71 раз
Скачать  

01-06-2020 19:40 Чёрная лестница Скачать торрент  

Чёрная лестница
Год выпуска: 2020
Страна: Россия
Жанр: Детектив, драма, криминал
Продолжительность: ~ 00:49:00
Перевод: Не требуется
Субтитры: отсутствуют

Режиссер: Сахат Дурсунов



В ролях: Алексей Матошин, Алексей Ушаков (V), Марина Коняшкина, Денис Васильев, Игорь Жижикин, Марина Куделинская, Азамат Нигманов, Денис Старков, Евгений Березовский, Павел Фартуков, Ирина Темичева, Александр Касаткин (II), Анастасия Чистякова (II), Виктор Пилипко, Владимир Щербаков, Алексей Красовский (II), Валерий Новиков

Описание: Казалось бы, что может быть общего у старшего оперуполномоченного уголовного розыска Вадима Тельцова (Алексей Матошин) и отчаянного покорителя московских высоток, руфера Макса Юсова (Алексей Ушаков). Но в один прекрасный день судьба сводит их – парня подозревают в убийстве отца. Стандартное, вроде бы, дело и случайное знакомство переворачивают жизнь простого опера с ног на голову и его карьере оперативника быстро приходит конец. Однако, Тельцов не отчаивается и открывает детективное агентство, куда приглашает на работу нового знакомого. Благодаря сноровке, умению ходить по крышам и знанию новейших технических устройств Макс становится отличным союзником и товарищем закоренелому полицейскому. Сложные расследования и личные драмы сближают напарников, образуя единство, которое может быть только между близкими друзьями и родными людьми.

Качество: WEBRip
Формат: AVI

Видео: 720x400 (1.80:1), 25 fps, XviD build 73 ~1600 kbps avg, 0.22 bit/pixel
Аудио: 48.0 kHz, AC3 Dolby Digital, 2/0 (L,R) ch, ~ 192 kbps
скриншот  скриншот  скриншот  скриншот  

General
Complete name : H:\fiiles x\Черная лестница .2020.WEB-DLRip.Files-x\01. Черная лестница .2020.WEB-DLRip.Files-x.avi
Format : AVI
Format/Info : Audio Video Interleave
File size : 629 MiB
Duration : 48mn 50s
Overall bit rate : 1 802 Kbps
Writing application : VirtualDubMod 1.5.10.3 | www.virtualdub-fr.org || (build 2550/release)
Writing library : VirtualDubMod build 2550/release

Video
ID : 0
Format : MPEG-4 Visual
Format profile : Advanced Simple@L5
Format settings, BVOP : 1
Format settings, QPel : No
Format settings, GMC : No warppoints
Format settings, Matrix : Custom
Codec ID : XVID
Codec ID/Hint : XviD
Duration : 48mn 50s
Bit rate : 1 600 Kbps
Width : 720 pixels
Height : 400 pixels
Display aspect ratio : 16:9
Frame rate : 25.000 fps
Color space : YUV
Chroma subsampling : 4:2:0
Bit depth : 8 bits
Scan type : Progressive
Compression mode : Lossy
Bits/(Pixel*Frame) : 0.222
Stream size : 559 MiB (89%)
Writing library : XviD 73

Audio
ID : 1
Format : AC-3
Format/Info : Audio Coding 3
Mode extension : CM (complete main)
Codec ID : 2000
Duration : 48mn 50s
Bit rate mode : Constant
Bit rate : 192 Kbps
Channel(s) : 2 channels
Channel positions : Front: L R
Sampling rate : 48.0 KHz
Bit depth : 16 bits
Compression mode : Lossy
Stream size : 67.1 MiB (11%)
Alignment : Split accross interleaves
Interleave, duration : 40 ms (1.00 video frame)
Interleave, preload duration : 500 ms

Когда раздача ведётся путём добавления новых серий, при каждом добавлении создётся новый торрент. Чтобы начать докачку новой серии, пользователям необходимо сделать следующее:
(1) остановить скачивание,
(2) удалить старый торрент у себя из клиента (старые серии удалять не надо),
(3) скачать новый торрент и запустить его у себя в клиенте вместо старого, при этом указать клиенту путь в старую папку, куда и должно происходить скачивание новых серий.
Ваш клиент при этом должен произвести хеширование (проверку) старой папки (если не производит сам - помогите ему сделать это), и будет докачивать только те серии, которых у вас ещё нет. Старые серии при этом не удаляются, а продолжают раздаваться!
Eсли вы уже удалили старые серии, то предотвратить повторную закачку старых серий можно, отжав галочку в соответсвующих местах при запуске нового торрента. По возможности, желательно не удалять старые серии как можно дольше, чтобы релизер не столько продолжал раздавать старые серии, а смог сконцентрироваться на новых.
pb.wtf



Скачать Чёрная лестница через торрент https://i112.fastpic.ru/big/2020/0531/a9/3a9c601297b8ab234e9de607aa1dcda9.jpg Скачать фильм Чёрная лестница через торрент бесплантно в хорошем качестве Описание: Казалось бы, что может быть общего у старшего оперуполномоченного уголовного розыска Вадима Тельцова (Алексей Матошин) и ... 10 10 7
Торрент: Зарегистрирован [2020-06-13 02:19] · скачан: 71 раз
Статус: √ проверено
Размер: 12.2 GB
Как cкачать? Как скачать Чёрная лестница через торрент | qTorrent

% Раздел Тема Автор DL S | L
Наши сериалы [ 25.01 GB ] Чёрная лестница / Сезон: 1 / Серии: 1-20 из 20 [2020 WEBRip 720p] bober100 Скачать
1 | 0
Наши сериалы [ 14.85 GB ] Чёрная лестница / Сезон: 1 / Серии: 1-20 из 20 [2020 WEBRip-AVC] bober100 Скачать
2 | 0
Наши сериалы [ 42.23 GB ] Чёрная лестница / Сезон: 1 / Серии: 1-20 из 20 [2020 WEBRip 1080p] bober100 Скачать
1 | 0
Наши сериалы [ 13.44 GB ] Чёрная лестница / Сезон: 1 / Серии: 1-20 из 20 [2020 SATRip] bober100 Скачать
2 | 0

28-11-2019 20:33  

Отключить всю рекламу на сайте

    Дорогой пользователь! Огромная просьба, поблагодарите релизера, оцените раздачу и оставьте свои комментарий, если Вы скачали Чёрная лестница через торрент бесплатно! Внесите свою лепту в развитие PiratBit!
    Комментировать посты могут только пользователи прошедшие не сложную регистрацию
    Показать сообщения:    

    Чёрная лестница через торрент
    Скачать бесплатно Чёрная лестница
    Чёрная лестница скачать торрент
    Чёрная лестница смотреть онлайн
    Cкачать фильм Чёрная лестница бесплатно
    Чёрная лестница скачать торрент в хорошем качестве
    Чёрная лестница смотреть онлайн бесплатно в хорошем качестве


    Вы не можете начинать темы
    Вы не можете отвечать на сообщения
    Вы не можете редактировать свои сообщения
    Вы не можете удалять свои сообщения
    Вы не можете голосовать в опросах
    Вы не можете прикреплять файлы к сообщениям
    Вы можете скачивать файлы