Ссылка на приватное зеркало всего за 1$. Внимание количество ограничено!!!

iTunes

iTunes

iTunes

1

iTunes

iTunes

iTunes

iTunes

iTunes

30
pack

$ от Little Big

ВАЖНО

!!Акция!!

Alien_RageХит недели

RePack

Resident Evil 21

ИГРА 18+

pack

RePack

jed

!!Акция!!

Alien_Rage

RePack

fifa19

RePack

Assassins Creed: Odyssey

RePack

NEED FOR SPEED™ PAYBACK

4 сезон

9 сезон

Бесстыжие 9 сезон

Все сериалы

все сериалы на PB.wtf

RePack

FAR CRY 5
  

Кайфтаун / Hightown / Сезон: 1 / Серии: 1-7 из 8 (Эгил Эгилссон, Рэйчел Моррисон, Майкл Оффер) [2020, Драма, криминал, детектив, WEB-DL 720p] MVO [LostFilm] pb.wtf

Кайфтаун через торрент pb.wtf

Раздают: 2 [ 1 KB/s ]
Размер: 17.19 GB | Добавлен: 12 д. назад | Торрент скачан:6 раз
Скачать  

02-06-2020 17:18 Кайфтаун Скачать торрент  

Кайфтаун | Hightown
Год выпуска: 2020
Страна: США
Студия: Starz
Жанр: Драма, криминал, детектив
Продолжительность: ~ 00:55:00
Перевод: Профессиональный многоголосый | LostFilm
Субтитры: отсутствуют

Режиссер: Эгил Эгилссон, Рэйчел Моррисон, Майкл Оффер

rating

В ролях: Моника Рэйманд, Джеймс Бэдж Дэйл, Райли Воулкел, Шэйн Харпер, Амори Ноласко, Аткинс Эстимонд, Дон Норвуд, Майк Пневски, Кристал Лэйк Эванс, Ана Ногейра и др.

Описание: Джеки Куинонс, офицер службы рыболовного надзора в небольшом прибрежном городке, не очень любит свою работу и старается только ради денег и привилегий. Однако все меняется, когда она обнаруживает в бухте Кейп-Код труп девушки.

Качество: WEB-DL 720p
Формат: MKV

Видео: 1280x720 (16:9), 23.976 fps, ~ 5400 Kbps
Аудио №1: AC3, 48,0 kHz, 2 ch, 384 kbps | LostFilm
Аудио №2: E-AC3, 48,0 kHz, 6 ch, 640 kbps | Original
скриншот  скриншот  скриншот  скриншот  

Общее
Уникальный идентификатор : 241957707868045258223524362569317039997 (0xB6075C07438833569F83258C60033F7D)
Полное имя : D:\Hightown.S01.WEB-DL.LF.720p\Hightown.S01E01.Love.You.Like.a.Sister.AMZN.WEB-DL.720p.mkv
Формат : Matroska
Версия формата : Version 4
Размер файла : 2,58 Гбайт
Продолжительность : 56 м. 49 с.
Режим общего битрейта : Постоянный
Общий поток : 6495 Кбит/сек
Дата кодирования : UTC 2020-06-02 16:23:00
Программа кодирования : mkvmerge v7.9.0 ('Birds') 64bit
Библиотека кодирования : libebml v1.3.1 + libmatroska v1.4.2

Видео
Идентификатор : 1
Формат : AVC
Формат/Информация : Advanced Video Codec
Профиль формата : High@L3.1
Настройки формата : CABAC / 4 Ref Frames
Параметр CABAC формата : Да
Параметр RefFrames формата : 4 кадра
Идентификатор кодека : V_MPEG4/ISO/AVC
Продолжительность : 56 м. 49 с.
Вид битрейта : Постоянный
Битрейт : 5469 Кбит/сек
Номинальный битрейт : 6000 Кбит/сек
Ширина : 1280 пикселей
Высота : 720 пикселей
Соотношение сторон : 16:9
Режим частоты кадров : Постоянный
Частота кадров : 23,976 (24000/1001) кадра/сек
Цветовое пространство : YUV
Субдискретизация насыщенности : 4:2:0
Битовая глубина : 8 бит
Тип развёртки : Прогрессивная
Бит/(Пиксели*Кадры) : 0.248
Размер потока : 2,17 Гбайт (84%)
Язык : English
Default : Да
Forced : Нет
Цветовой диапазон : Limited
Основные цвета : BT.709
Характеристики трансфера : BT.709
Коэффициенты матрицы : BT.709

Аудио #1
Идентификатор : 2
Формат : AC-3
Формат/Информация : Audio Coding 3
Коммерческое название : Dolby Digital
Идентификатор кодека : A_AC3
Продолжительность : 56 м. 49 с.
Вид битрейта : Постоянный
Битрейт : 384 Кбит/сек
Каналы : 2 канала
ChannelLayout : L R
Частота : 48,0 КГц
Частота кадров : 31,250 кадров/сек (1536 SPF)
Метод сжатия : С потерями
Размер потока : 156 Мбайт (6%)
Заголовок : LostFilm
Язык : Russian
ServiceKind/String : Complete Main
Default : Да
Forced : Нет

Аудио #2
Идентификатор : 3
Формат : E-AC-3
Формат/Информация : Enhanced AC-3
Коммерческое название : Dolby Digital Plus
Идентификатор кодека : A_EAC3
Продолжительность : 56 м. 49 с.
Вид битрейта : Постоянный
Битрейт : 640 Кбит/сек
Каналы : 6 каналов
ChannelLayout : L R C LFE Ls Rs
Частота : 48,0 КГц
Частота кадров : 31,250 кадров/сек (1536 SPF)
Метод сжатия : С потерями
Размер потока : 260 Мбайт (10%)
Заголовок : original
Язык : English
ServiceKind/String : Complete Main
Default : Нет
Forced : Нет

Когда раздача ведётся путём добавления новых серий, при каждом добавлении создётся новый торрент. Чтобы начать докачку новой серии, пользователям необходимо сделать следующее:
(1) остановить скачивание,
(2) удалить старый торрент у себя из клиента (старые серии удалять не надо),
(3) скачать новый торрент и запустить его у себя в клиенте вместо старого, при этом указать клиенту путь в старую папку, куда и должно происходить скачивание новых серий.
Ваш клиент при этом должен произвести хеширование (проверку) старой папки (если не производит сам - помогите ему сделать это), и будет докачивать только те серии, которых у вас ещё нет. Старые серии при этом не удаляются, а продолжают раздаваться!
Eсли вы уже удалили старые серии, то предотвратить повторную закачку старых серий можно, отжав галочку в соответсвующих местах при запуске нового торрента. По возможности, желательно не удалять старые серии как можно дольше, чтобы релизер не столько продолжал раздавать старые серии, а смог сконцентрироваться на новых.
pb.wtf



Скачать Кайфтаун через торрент https://i112.fastpic.ru/big/2020/0517/b3/5a099fcd99f6f8da8967518a919e7ab3.jpeg Скачать фильм Кайфтаун через торрент бесплантно в хорошем качестве Описание: Джеки Куинонс, офицер службы рыболовного надзора в небольшом прибрежном городке, не очень любит свою работу и старается только ... 10 10 4
Торрент: Зарегистрирован [2020-07-01 03:14] · скачан: 6 раз
Статус: √ проверено
Размер: 17.19 GB
Как cкачать? Как скачать Кайфтаун через торрент | qTorrent

% Раздел Тема Автор DL S | L
Зарубежные сериалы [ 29.71 GB ] Кайфтаун / Hightown / Сезон: 1 / Серии: 1-7 из 8 [2020 WEB-DL 1080p] MVO [Novamedia] bober100 Скачать
1 | 0
Зарубежные сериалы [ 4.94 GB ] Кайфтаун / Hightown / Сезон: 1 / Серии: 1-7 из 8 [2020 WEB-DLRip] MVO [NewStudio] bober100 Скачать
2 | 0
Зарубежные сериалы [ 17.91 GB ] Кайфтаун / Hightown / Сезон: 1 / Серии: 1-7 из 8 [2020 WEB-DL 720p] MVO [NewStudio] bober100 Скачать
1 | 1

28-11-2019 20:33  

Отключить всю рекламу на сайте

    Дорогой пользователь! Огромная просьба, поблагодарите релизера, оцените раздачу и оставьте свои комментарий, если Вы скачали Кайфтаун через торрент бесплатно! Внесите свою лепту в развитие PiratBit!
    Комментировать посты могут только пользователи прошедшие не сложную регистрацию
    Показать сообщения:    

    Кайфтаун через торрент
    Скачать бесплатно Кайфтаун
    Кайфтаун скачать торрент
    Кайфтаун смотреть онлайн
    Cкачать фильм Кайфтаун бесплатно
    Кайфтаун скачать торрент в хорошем качестве
    Кайфтаун смотреть онлайн бесплатно в хорошем качестве


    Вы не можете начинать темы
    Вы не можете отвечать на сообщения
    Вы не можете редактировать свои сообщения
    Вы не можете удалять свои сообщения
    Вы не можете голосовать в опросах
    Вы не можете прикреплять файлы к сообщениям
    Вы можете скачивать файлы